<?xml version="1.0" standalone="no"?>
<!DOCTYPE svg PUBLIC "-//W3C//DTD SVG 1.1//EN" "http://www.w3.org/Graphics/SVG/1.1/DTD/svg11.dtd" >
<svg xmlns="http://www.w3.org/2000/svg">
<metadata>Generated by IcoMoon</metadata>
<defs>
<font id="fusion-builder-icons" horiz-adv-x="1024">
<font-face units-per-em="1024" ascent="896" descent="-128" />
<missing-glyph horiz-adv-x="1024" />
<glyph unicode="&#x20;" horiz-adv-x="0" d="" />
<glyph unicode="&#xe286;" glyph-name="dashboard" d="M554 755.81h342v-256h-342v256zM554-12.19v426h342v-426h-342zM128-12.19v256h342v-256h-342zM128 329.81v426h342v-426h-342z" />
<glyph unicode="&#xe600;" glyph-name="columns" horiz-adv-x="952" d="M91.43 18.284h347.428v658.286h-365.714v-640q0-7.428 5.43-12.856t12.856-5.428zM877.714 36.568v640h-365.714v-658.286h347.428q7.428 0 12.856 5.428t5.428 12.856zM950.856 731.426v-694.856q0-37.714-26.856-64.572t-64.572-26.856h-768q-37.714 0-64.57 26.856t-26.856 64.572v694.856q0 37.714 26.856 64.572t64.57 26.856h768q37.714 0 64.572-26.856t26.856-64.572z" />
<glyph unicode="&#xe601;" glyph-name="file-alt" horiz-adv-x="732" d="M585.144 219.426v-36.572q0-8-5.144-13.144t-13.144-5.144h-402.286q-8 0-13.144 5.144t-5.144 13.144v36.572q0 8 5.144 13.144t13.144 5.144h402.286q8 0 13.144-5.144t5.144-13.144zM585.144 365.712v-36.572q0-8-5.144-13.144t-13.144-5.144h-402.286q-8 0-13.144 5.144t-5.144 13.144v36.572q0 8 5.144 13.144t13.144 5.142h402.286q8 0 13.144-5.142t5.144-13.144zM73.144 18.284h585.144v438.856h-237.714q-22.858 0-38.858 16t-16 38.858v237.714h-292.572v-731.428zM438.858 530.284h214.858q-5.714 16.572-12.572 23.428l-178.856 178.856q-6.858 6.858-23.428 12.572v-214.856zM731.428 511.998v-512q0-22.856-16-38.856t-38.856-16h-621.714q-22.856 0-38.856 16t-16 38.856v768q0 22.856 16 38.856t38.856 16h365.714q22.858 0 50.286-11.428t43.428-27.428l178.286-178.286q16-16 27.428-43.428t11.428-50.286z" />
<glyph unicode="&#xe602;" glyph-name="convertplus" d="M274.955 642.073l-179.735-4.165-0.075-326.087 98.5 98.487 57.765-116.342-148.1-148.1c-5.5-5.5-5.5-14.415 0-19.91 2.748-2.75 6.353-4.125 9.955-4.125s7.207 1.375 9.955 4.125l141.4 141.4 36.292-73.095-225.357-225.355c-5.5-5.5-5.5-14.41 0-19.91 2.748-2.75 6.353-4.125 9.955-4.125s7.207 1.375 9.955 4.125l224.5 224.5 73.845-36.97-140.58-140.58c-5.5-5.5-5.5-14.415 0-19.91 2.748-2.75 6.353-4.125 9.955-4.125s7.207 1.375 9.955 4.125l147.207 147.205 120.873-60.51-98.315-98.29 330.435-3.76 10.855 172.13 168.375 690.317-677.615-181.055zM707.995 214.29l-7.555-119.88-161.66 71.070-162.2 81.2-79.87 160.87-68.55 158.51 125.175 2.902 471.93 126.095-117.27-480.767zM619.215 227.070l68.51 329.647-327.705-70.795z" />
<glyph unicode="&#xe603;" glyph-name="exclamation-sign" horiz-adv-x="878" d="M438.858 822.854q119.43 0 220.286-58.856t159.714-159.714 58.856-220.286-58.856-220.286-159.714-159.714-220.286-58.856-220.286 58.856-159.714 159.714-58.856 220.286 58.856 220.286 159.714 159.714 220.286 58.856zM512 110.284v108.572q0 8-5.142 13.428t-12.572 5.428h-109.714q-7.428 0-13.144-5.714t-5.714-13.144v-108.572q0-7.428 5.714-13.144t13.144-5.714h109.714q7.428 0 12.572 5.428t5.142 13.428zM510.858 306.854l10.286 354.856q0 6.856-5.714 10.286-5.714 4.57-13.714 4.57h-125.714q-8 0-13.714-4.57-5.714-3.43-5.714-10.286l9.714-354.856q0-5.714 5.714-10t13.714-4.286h105.714q8 0 13.428 4.286t6 10z" />
<glyph unicode="&#xe604;" glyph-name="blog" horiz-adv-x="952" d="M936.572 622.854q22.856-32.57 10.286-73.714l-157.144-517.714q-10.856-36.572-43.714-61.428t-70-24.856h-527.428q-44 0-84.856 30.572t-56.856 75.144q-13.714 38.286-1.142 72.572 0 2.286 1.714 15.428t2.286 21.144q0.57 4.572-1.714 12.286t-1.714 11.144q1.142 6.286 4.57 12t9.43 13.428 9.428 13.428q13.144 21.714 25.714 52.286t17.144 52.286q1.714 5.714 0.286 17.144t-0.286 16q1.714 6.286 9.714 16t9.714 13.144q12 20.572 24 52.572t14.286 51.428q0.57 5.142-1.43 18.286t0.286 16q2.286 7.428 12.57 17.428t12.57 12.858q10.856 14.856 24.286 48.286t15.714 55.144q0.57 4.572-1.714 14.572t-1.144 15.142q1.144 4.572 5.144 10.286t10.286 13.144 9.714 12q4.57 6.856 9.43 17.428t8.57 20 9.144 20.572 11.144 18.286 15.142 13.428 20.572 6.572 27.144-3.142l-0.572-1.714q21.714 5.144 29.144 5.144h434.856q42.286 0 65.144-32t10.286-74.286l-156.572-517.714q-20.572-68-40.856-87.714t-73.428-19.714h-496.572q-15.43 0-21.714-8.572-6.286-9.144-0.57-24.572 13.714-40 82.286-40h527.428q16.572 0 32 8.856t20 23.714l171.428 564q4 12.572 2.856 32.57 21.714-8.57 33.714-24.57zM328.572 621.712q-2.286-7.428 1.142-12.856t11.428-5.428h347.428q7.428 0 14.572 5.428t9.428 12.856l12 36.57q2.286 7.43-1.144 12.858t-11.428 5.428h-347.428q-7.428 0-14.572-5.428t-9.428-12.858zM281.142 475.426q-2.286-7.428 1.142-12.856t11.428-5.428h347.428q7.428 0 14.572 5.428t9.428 12.856l12 36.572q2.286 7.428-1.144 12.856t-11.428 5.428h-347.428q-7.428 0-14.572-5.428t-9.428-12.856z" />
<glyph unicode="&#xe605;" glyph-name="check-empty" horiz-adv-x="806" d="M640 749.712h-475.428q-37.714 0-64.57-26.856t-26.856-64.572v-475.428q0-37.714 26.856-64.572t64.57-26.856h475.428q37.714 0 64.572 26.856t26.856 64.572v475.428q0 37.714-26.856 64.572t-64.572 26.856zM804.572 658.284v-475.428q0-68-48.286-116.286t-116.286-48.286h-475.428q-68 0-116.286 48.286t-48.286 116.286v475.428q0 68 48.286 116.286t116.286 48.286h475.428q68 0 116.286-48.286t48.286-116.286z" />
<glyph unicode="&#xe606;" glyph-name="list-ul" d="M219.43 91.426q0-45.714-32-77.714t-77.714-32-77.714 32-32 77.714 32 77.714 77.714 32 77.714-32 32-77.714zM219.43 383.998q0-45.714-32-77.714t-77.714-32-77.714 32-32 77.714 32 77.714 77.714 32 77.714-32 32-77.714zM1024 146.284v-109.714q0-7.428-5.428-12.856t-12.856-5.428h-694.856q-7.428 0-12.856 5.428t-5.428 12.856v109.714q0 7.428 5.428 12.856t12.856 5.428h694.856q7.428 0 12.856-5.428t5.428-12.856zM219.43 676.568q0-45.714-32-77.714t-77.714-32-77.714 32-32 77.714 32 77.714 77.714 32 77.714-32 32-77.714zM1024 438.854v-109.714q0-7.428-5.428-12.856t-12.856-5.428h-694.856q-7.428 0-12.856 5.428t-5.428 12.856v109.714q0 7.428 5.428 12.858t12.856 5.428h694.856q7.428 0 12.856-5.428t5.428-12.856zM1024 731.426v-109.714q0-7.428-5.428-12.856t-12.856-5.428h-694.856q-7.428 0-12.856 5.428t-5.428 12.856v109.714q0 7.428 5.428 12.858t12.856 5.428h694.856q7.428 0 12.856-5.428t5.428-12.858z" />
<glyph unicode="&#xe607;" glyph-name="youtube" d="M832 767.998h-640c-105.6 0-192-86.4-192-192v-384c0-105.6 86.4-192 192-192h640c105.6 0 192 86.4 192 192v384c0 105.6-86.4 192-192 192zM384 127.998v512l320-256-320-256z" />
<glyph unicode="&#xe608;" glyph-name="flag" d="M182.856 749.712q0-41.144-36.57-62.856v-723.428q0-7.428-5.43-12.856t-12.856-5.428h-36.57q-7.43 0-12.856 5.428t-5.43 12.856v723.428q-36.57 21.714-36.57 62.856 0 30.286 21.43 51.714t51.714 21.43 51.714-21.43 21.43-51.714zM1024 713.14v-436q0-14.286-7.144-22t-22.572-15.714q-122.856-66.286-210.856-66.286-34.856 0-70.572 12.572t-62 27.428-66 27.428-81.428 12.572q-109.714 0-265.142-83.428-9.714-5.144-18.856-5.144-14.856 0-25.714 10.856t-10.856 25.714v424q0 18.286 17.714 31.428 12 8 45.144 24.572 134.856 68.57 240.57 68.57 61.142 0 114.286-16.57t125.144-50.286q21.714-10.856 50.286-10.856 30.856 0 67.144 12t62.856 26.856 50.286 26.856 31.144 12q14.856 0 25.714-10.856t10.856-25.714z" />
<glyph unicode="&#xe609;" glyph-name="dollar" horiz-adv-x="586" d="M558.856 218.854q0-87.428-56.856-150.572t-147.714-78v-100q0-8-5.142-13.144t-13.144-5.142h-77.144q-7.43 0-12.856 5.428t-5.43 12.858v100q-37.714 5.144-72.856 17.714t-58 25.428-42.286 27.428-26.57 21.428-10 10.286q-9.714 12-1.144 23.428l58.856 77.144q4 5.714 13.144 6.856 8.57 1.144 13.714-5.144l1.144-1.144q64.57-56.572 138.856-71.428 21.144-4.572 42.286-4.572 46.286 0 81.428 24.572t35.144 69.714q0 16-8.572 30.286t-19.144 24-33.428 21.428-37.714 18.286-45.714 18.572q-22.286 9.144-35.144 14.286t-35.144 15.144-35.714 17.714-32.286 20.286-30.57 24.286-24.856 28-20.286 33.144-12 38-4.856 44.572q0 78.856 56 138.286t145.714 76.572v102.856q0 7.43 5.43 12.856t12.858 5.43h77.144q8 0 13.144-5.144t5.142-13.144v-100.57q32.57-3.43 63.142-13.144t49.714-19.144 36.286-21.428 22.286-16.572 8.572-8q9.714-10.286 2.856-21.714l-46.286-83.43q-4.572-8.572-13.142-9.142-8-1.714-15.428 4-1.714 1.714-8.286 6.856t-22.286 15.144-33.428 18.286-42.572 14.856-48.856 6.572q-54.286 0-88.57-24.572t-34.286-63.428q0-14.856 4.856-27.428t16.856-23.714 22.57-18.856 32-17.714 34.572-15.428 40-15.714q30.286-11.428 46.286-18t43.43-20 43.144-24.286 35.428-28.572 30.286-36.286 18-43.714 7.428-53.714z" />
<glyph unicode="&#xe60a;" glyph-name="tasks" d="M585.144 91.426h365.714v73.144h-365.714v-73.144zM365.714 383.998h585.144v73.144h-585.144v-73.144zM731.428 676.568h219.428v73.144h-219.428v-73.144zM1024 201.14v-146.286q0-14.856-10.856-25.714t-25.714-10.856h-950.856q-14.856 0-25.714 10.856t-10.856 25.714v146.286q0 14.856 10.856 25.714t25.714 10.856h950.856q14.856 0 25.714-10.856t10.856-25.714zM1024 493.712v-146.286q0-14.856-10.856-25.714t-25.714-10.856h-950.856q-14.856 0-25.714 10.856t-10.856 25.714v146.286q0 14.858 10.856 25.714t25.714 10.856h950.856q14.856 0 25.714-10.856t10.856-25.714zM1024 786.284v-146.286q0-14.856-10.856-25.714t-25.714-10.856h-950.856q-14.856 0-25.714 10.856t-10.856 25.714v146.286q0 14.856 10.856 25.714t25.714 10.858h950.856q14.856 0 25.714-10.858t10.856-25.714z" />
<glyph unicode="&#xe60b;" glyph-name="table" horiz-adv-x="952" d="M292.572 109.712v109.714q0 8-5.142 13.144t-13.142 5.144h-182.856q-8 0-13.144-5.144t-5.144-13.144v-109.714q0-8 5.144-13.144t13.144-5.144h182.856q8 0 13.144 5.144t5.142 13.144zM292.572 329.14v109.714q0 8-5.142 13.144t-13.142 5.142h-182.856q-8 0-13.144-5.142t-5.144-13.144v-109.714q0-8 5.144-13.144t13.144-5.144h182.856q8 0 13.144 5.144t5.142 13.144zM585.144 109.712v109.714q0 8-5.144 13.144t-13.144 5.144h-182.856q-8 0-13.144-5.144t-5.142-13.144v-109.714q0-8 5.142-13.144t13.144-5.144h182.856q8 0 13.144 5.144t5.144 13.144zM292.572 548.568v109.714q0 8-5.142 13.144t-13.142 5.144h-182.856q-8 0-13.144-5.144t-5.144-13.144v-109.714q0-8 5.144-13.144t13.144-5.144h182.856q8 0 13.144 5.144t5.142 13.144zM585.144 329.14v109.714q0 8-5.144 13.144t-13.144 5.142h-182.856q-8 0-13.144-5.142t-5.142-13.144v-109.714q0-8 5.142-13.144t13.144-5.144h182.856q8 0 13.144 5.144t5.144 13.144zM877.714 109.712v109.714q0 8-5.144 13.144t-13.144 5.144h-182.856q-8 0-13.144-5.144t-5.144-13.144v-109.714q0-8 5.144-13.144t13.144-5.144h182.856q8 0 13.144 5.144t5.144 13.144zM585.144 548.568v109.714q0 8-5.144 13.144t-13.144 5.144h-182.856q-8 0-13.144-5.144t-5.142-13.144v-109.714q0-8 5.142-13.144t13.144-5.144h182.856q8 0 13.144 5.144t5.144 13.144zM877.714 329.14v109.714q0 8-5.144 13.144t-13.144 5.142h-182.856q-8 0-13.144-5.142t-5.144-13.144v-109.714q0-8 5.144-13.144t13.144-5.144h182.856q8 0 13.144 5.144t5.144 13.144zM877.714 548.568v109.714q0 8-5.144 13.144t-13.144 5.144h-182.856q-8 0-13.144-5.144t-5.144-13.144v-109.714q0-8 5.144-13.144t13.144-5.144h182.856q8 0 13.144 5.144t5.144 13.144zM950.856 731.426v-621.714q0-37.714-26.856-64.572t-64.572-26.856h-768q-37.714 0-64.57 26.856t-26.856 64.572v621.714q0 37.714 26.856 64.572t64.57 26.856h768q37.714 0 64.572-26.856t26.856-64.572z" />
<glyph unicode="&#xe60c;" glyph-name="list-alt" d="M219.43 219.426v-36.572q0-7.428-5.43-12.856t-12.856-5.428h-36.57q-7.43 0-12.856 5.428t-5.43 12.856v36.572q0 7.428 5.43 12.856t12.856 5.428h36.57q7.43 0 12.856-5.428t5.43-12.856zM219.43 365.712v-36.572q0-7.428-5.43-12.856t-12.856-5.428h-36.57q-7.43 0-12.856 5.428t-5.43 12.856v36.572q0 7.428 5.43 12.856t12.856 5.428h36.57q7.43 0 12.856-5.428t5.43-12.856zM219.43 511.998v-36.572q0-7.428-5.43-12.856t-12.856-5.428h-36.57q-7.43 0-12.856 5.428t-5.43 12.856v36.572q0 7.428 5.43 12.856t12.856 5.428h36.57q7.43 0 12.856-5.428t5.43-12.856zM877.714 219.426v-36.572q0-7.428-5.428-12.856t-12.856-5.428h-548.572q-7.428 0-12.856 5.428t-5.428 12.856v36.572q0 7.428 5.428 12.856t12.856 5.428h548.572q7.428 0 12.856-5.428t5.428-12.856zM877.714 365.712v-36.572q0-7.428-5.428-12.856t-12.856-5.428h-548.572q-7.428 0-12.856 5.428t-5.428 12.856v36.572q0 7.428 5.428 12.856t12.856 5.428h548.572q7.428 0 12.856-5.428t5.428-12.856zM877.714 511.998v-36.572q0-7.428-5.428-12.856t-12.856-5.428h-548.572q-7.428 0-12.856 5.428t-5.428 12.856v36.572q0 7.428 5.428 12.856t12.856 5.428h548.572q7.428 0 12.856-5.428t5.428-12.856zM950.856 109.712v475.428q0 7.428-5.428 12.856t-12.856 5.428h-841.144q-7.43 0-12.856-5.428t-5.43-12.856v-475.428q0-7.428 5.43-12.856t12.856-5.428h841.144q7.428 0 12.856 5.428t5.428 12.856zM1024 731.426v-621.714q0-37.714-26.856-64.572t-64.572-26.856h-841.144q-37.714 0-64.57 26.856t-26.856 64.572v621.714q0 37.714 26.856 64.572t64.57 26.856h841.144q37.714 0 64.572-26.856t26.856-64.572z" />
<glyph unicode="&#xe60d;" glyph-name="expand-alt" horiz-adv-x="658" d="M512 365.712v-36.572q0-8-5.142-13.144t-13.142-5.144h-128v-128q0-8-5.142-13.144t-13.142-5.144h-36.572q-8 0-13.144 5.144t-5.142 13.144v128h-128q-8 0-13.144 5.144t-5.144 13.144v36.572q0 8 5.144 13.144t13.144 5.142h128v128q0 8 5.142 13.144t13.144 5.142h36.572q8 0 13.144-5.142t5.142-13.144v-128h128q8 0 13.142-5.144t5.144-13.144zM585.144 146.284v402.286q0 22.858-16 38.858t-38.856 16h-402.286q-22.856 0-38.856-16t-16-38.856v-402.286q0-22.856 16-38.856t38.856-16h402.286q22.856 0 38.856 16t16 38.856zM658.286 548.568v-402.286q0-52.572-37.428-90.286t-90.572-37.714h-402.286q-53.144 0-90.57 37.714t-37.43 90.286v402.286q0 53.144 37.43 90.572t90.57 37.428h402.286q53.144 0 90.572-37.428t37.428-90.572z" />
<glyph unicode="&#xe60e;" glyph-name="Gravityforms" horiz-adv-x="930" d="M930.072 567.447c-0.008 46.772-33.13 104.188-73.664 127.578l-317.708 183.432c-40.508 23.39-106.818 23.39-147.324 0l-317.712-183.432c-40.516-23.382-73.662-80.806-73.662-127.578v-366.878c0-46.788 33.142-104.2 73.662-127.598l317.716-183.438c40.514-23.378 106.826-23.378 147.324 0l317.708 183.438c40.538 23.394 73.662 80.814 73.662 127.598v366.878zM667.958 331.585h-398.274l-18.37-114.024c-2.162-15.128-10.808-22.698-25.94-22.698h-55.122c-15.132 0-21.616 7.57-19.454 22.698l38.37 242.634c11.348 71.332 47.016 112.942 130.236 112.942h440.424c15.128 0 21.61-7.566 19.452-22.698l-7.028-43.23c-2.158-15.132-11.346-22.696-26.476-22.696h-412.318c-25.94 0-42.152-14.052-45.936-39.988l-3.784-24.32h398.27c15.128 0 21.072-7.566 18.914-22.692l-7.028-43.234c-2.158-15.136-10.804-22.698-25.932-22.698z" />
<glyph unicode="&#xe610;" glyph-name="star-empty" horiz-adv-x="952" d="M649.714 322.284l174.856 169.714-241.144 35.43-108 218.286-108-218.286-241.144-35.428 174.856-169.714-41.714-240.572 216 113.714 215.428-113.714zM950.856 526.284q0-12.572-14.856-27.428l-207.428-202.286 49.144-285.714q0.572-4 0.572-11.428 0-28.572-23.428-28.572-10.856 0-22.856 6.856l-256.572 134.856-256.572-134.856q-12.57-6.856-22.856-6.856-12 0-18 8.286t-6 20.286q0 3.428 1.144 11.428l49.144 285.714-208 202.286q-14.286 15.428-14.286 27.428 0 21.144 32 26.286l286.856 41.714 128.572 260q10.856 23.428 28 23.428t28-23.428l128.572-260 286.858-41.714q32-5.144 32-26.286z" />
<glyph unicode="&#xe613;" glyph-name="newspaper" d="M819.2 844.798h-614.4c-56.32 0-102.4-46.080-102.4-102.4v-716.8c0-56.32 46.080-102.4 102.4-102.4h614.4c56.37 0 102.4 46.080 102.4 102.4v716.8c0 56.32-46.028 102.4-102.4 102.4zM819.2 25.598h-614.4v716.8h614.4v-716.8zM563.2 281.598h-256v-51.2h256v51.2zM716.8 486.398h-204.8v-51.2h204.8v51.2zM512 537.598h204.8v102.4h-204.8v-102.4zM460.8 639.998h-153.6v-204.8h153.6v204.8zM409.6 383.998h-102.4v-51.2h102.4v51.2zM460.8 332.798h256v51.2h-256v-51.2zM716.8 179.198h-409.6v-51.2h409.6v51.2zM614.4 230.398h102.4v51.2h-102.4v-51.2z" />
<glyph unicode="&#xe614;" glyph-name="clock" d="M512 855.038c-260.146 0-471.040-210.944-471.040-471.040 0-260.146 210.894-471.040 471.040-471.040s471.040 210.894 471.040 471.040c0 260.148-210.894 471.040-471.040 471.040zM512 15.358c-203.622 0-368.64 165.068-368.64 368.64s165.018 368.64 368.64 368.64 368.64-165.068 368.64-368.64-165.018-368.64-368.64-368.64zM547.84 650.238h-71.68v-281.088l174.336-174.336 50.688 50.688-153.344 153.344z" />
<glyph unicode="&#xe615;" glyph-name="browser" d="M921.6 793.598h-819.2c-56.32 0-102.4-46.080-102.4-102.4v-614.4c0-56.37 46.080-102.4 102.4-102.4h819.2c56.32 0 102.4 46.028 102.4 102.4v614.4c0 56.32-46.080 102.4-102.4 102.4zM235.52 697.854c21.248 0 38.4-16.692 38.4-37.326 0-20.684-17.152-37.376-38.4-37.376s-38.4 16.692-38.4 37.326c0 20.684 17.204 37.376 38.4 37.376zM94.72 660.478c0 20.634 17.152 37.324 38.4 37.324s38.4-16.64 38.4-37.324c0-20.686-17.152-37.376-38.4-37.376s-38.4 16.742-38.4 37.376zM922.624 76.798h-821.248v471.040h821.248v-471.040zM922.624 629.758h-615.424v61.44h615.424v-61.44z" />
<glyph unicode="&#xe616;" glyph-name="air" d="M135.372 570.52c89.446 76.8 160.154 137.574 351.846 29.184 92.108-52.070 166.4-71.63 228.25-71.63 108.288 0 178.432 60.262 239.104 112.332 21.658 18.586 24.474 51.61 6.246 73.678s-50.482 24.934-72.14 6.348c-89.446-76.85-160.102-137.574-351.898-29.184-253.338 143.104-372.020 41.164-467.354-40.754-21.606-18.586-24.422-51.558-6.246-73.626s50.534-24.986 72.192-6.35zM888.626 458.954c-89.446-76.8-160.102-137.574-351.898-29.184-253.286 143.104-371.968 41.166-467.302-40.704-21.658-18.586-24.474-51.61-6.246-73.678s50.482-24.934 72.142-6.35c89.446 76.85 160.154 137.574 351.846 29.236 92.11-52.070 166.4-71.68 228.25-71.68 108.288 0 178.432 60.262 239.104 112.384 21.658 18.586 24.474 51.558 6.246 73.626-18.176 22.118-50.482 24.934-72.14 6.348zM888.626 197.476c-89.446-76.8-160.102-137.574-351.898-29.184-253.286 143.104-372.020 41.216-467.302-40.704-21.658-18.586-24.474-51.61-6.246-73.678s50.482-24.934 72.142-6.35c89.498 76.85 160.154 137.524 351.898 29.236 92.11-52.070 166.4-71.68 228.25-71.68 108.288 0 178.432 60.262 239.104 112.384 21.658 18.534 24.474 51.558 6.246 73.626s-50.534 24.986-72.192 6.35z" />
<glyph unicode="&#xe617;" glyph-name="map" d="M1007.77 638.768l-239.308 149.862c-10.598 6.656-23.86 6.656-34.458 0l-222.004-139.060-222.002 139.008c-10.598 6.656-23.858 6.656-34.458 0l-239.308-149.812c-10.036-6.298-16.23-17.714-16.23-29.952v-599.398c0-12.596 6.45-24.27 16.998-30.464s23.398-6.042 33.74 0.462l222.002 139.058 222.002-139.058c10.598-6.656 23.86-6.656 34.51 0l222.004 139.058 222.002-139.058c5.274-3.328 11.264-5.018 17.254-5.018 5.682 0 11.366 1.536 16.486 4.558 10.496 6.196 16.998 17.87 16.998 30.464v599.398c0 12.236-6.196 23.654-16.23 29.952zM239.258 179.044l-172.288-107.878v517.836l172.288 107.878v-517.836zM478.514 71.166l-172.288 107.878v517.836l172.288-107.878v-517.836zM717.774 179.044l-172.236-107.878v517.836l172.236 107.878v-517.836zM956.98 71.166l-172.236 107.878v517.836l172.236-107.878v-517.836z" />
<glyph unicode="&#xe618;" glyph-name="user" d="M758.784 156.26c-126.208 45.978-166.554 84.788-166.554 167.884 0 49.87 38.554 33.586 55.45 124.928 7.014 37.888 41.062 0.614 47.616 87.092 0 34.458-18.586 43.058-18.586 43.058s9.472 51.046 13.158 90.266c4.506 48.948-28.262 175.31-203.468 175.31-175.156 0-208.026-126.362-203.418-175.31 3.686-39.218 13.158-90.266 13.158-90.266s-18.638-8.55-18.638-43.058c6.502-86.476 40.55-49.202 47.564-87.092 16.948-91.342 55.5-75.058 55.5-124.928 0-83.098-40.346-121.908-166.554-167.884-126.668-46.080-208.896-93.134-208.896-125.236 0-32.052 0-107.776 0-107.776h962.56c0 0 0 75.726 0 107.776s-82.278 79.104-208.896 125.236z" />
<glyph unicode="&#xe619;" glyph-name="feather" d="M217.806-115.816c15.668 51.25 39.424 123.442 71.218 227.89 138.548 22.374 195.89-17.87 283.904 142.54-71.424-22.322-157.542 41.422-152.884 69.018 4.608 27.648 200.346-19.918 328.448 165.786-161.486-36.3-213.198 43.674-192.358 55.758 48.076 27.904 190.822 11.572 266.906 87.194 39.22 38.912 57.548 133.582 41.626 167.374-19.2 40.754-136.038 101.582-200.448 95.898-64.41-5.734-165.428-250.318-195.38-248.372s-35.942 109.518 16.332 209.562c-55.142-24.882-156.16-102.348-187.854-168.55-59.034-123.188 5.53-405.658-15.154-415.744-20.736-10.034-90.418 129.69-111.206 193.024-28.416-97.076-29.082-194.356 53.966-323.584-31.334-84.788-48.436-182.374-51.046-231.986-1.23-39.732 37.018-48.23 43.93-25.804z" />
<glyph unicode="&#xe61a;" glyph-name="minus" d="M778.188 435.198h-532.428c-28.314 0-30.72-22.938-30.72-51.2s2.406-51.2 30.72-51.2h532.428c28.314 0 30.77 22.938 30.77 51.2s-2.458 51.2-30.77 51.2z" />
<glyph unicode="&#xe61b;" glyph-name="link" d="M402.38 143.664l-41.472-41.164c-35.942-35.584-94.362-35.634-130.252 0-17.254 17.152-26.726 39.834-26.726 64.052s9.522 46.95 26.726 64.102l152.576 151.398c31.59 31.386 91.084 77.516 134.452 34.51 19.918-19.764 52.070-19.61 71.782 0.256 19.764 19.866 19.66 52.020-0.256 71.782-73.678 73.114-182.63 59.596-277.504-34.51l-152.576-151.398c-36.558-36.352-56.73-84.686-56.73-136.14 0-51.404 20.174-99.738 56.782-136.090 37.682-37.428 87.142-56.064 136.602-56.064s99.022 18.636 136.704 56.064l41.472 41.216c19.916 19.764 20.020 51.918 0.256 71.73-19.762 19.866-51.916 19.968-71.834 0.256zM864.818 731.696c-79.154 78.542-189.798 82.79-263.116 10.086l-51.662-51.25c-19.918-19.764-20.070-51.866-0.308-71.782 19.814-19.916 51.918-20.020 71.782-0.256l51.66 51.252c37.938 37.682 87.654 22.068 120.116-10.086 17.254-17.102 26.726-39.886 26.726-64.052 0-24.218-9.524-46.95-26.726-64.052l-162.816-161.484c-74.394-73.83-109.364-39.22-124.262-24.422-19.916 19.764-52.020 19.61-71.73-0.256-19.762-19.918-19.662-52.070 0.256-71.782 34.15-33.894 73.216-50.688 114.074-50.688 50.074 0 102.962 25.19 153.242 75.11l162.764 161.486c36.608 36.3 56.78 84.634 56.78 136.038s-20.174 99.788-56.78 136.14z" />
<glyph unicode="&#xe61c;" glyph-name="soundcloud" d="M34.406 207.050l16.794 71.68-16.794 74.086c-0.46 2.202-4.658 3.89-9.83 3.89-5.222 0-9.42-1.69-9.83-3.89l-14.746-74.086 14.798-71.68c0.41-2.254 4.608-3.89 9.83-3.89 5.12 0 9.318 1.638 9.778 3.89zM139.366 167.268l14.234 110.798-14.234 171.366c-0.41 4.404-5.734 7.834-12.186 7.834-6.502 0-11.826-3.38-12.134-7.782l-12.646-171.418 12.646-110.798c0.308-4.352 5.632-7.73 12.134-7.73 6.45-0.052 11.776 3.38 12.186 7.73zM244.122 169.060l11.878 108.954-11.878 228.198c-0.306 5.324-6.656 9.574-14.388 9.574-7.782 0-14.132-4.198-14.388-9.574l-10.546-228.198 10.546-109.004c0.256-5.326 6.604-9.524 14.388-9.524 7.73 0 14.080 4.198 14.388 9.574zM348.672 170.698l9.728 107.264-9.728 229.888c-0.256 6.348-7.424 11.366-16.384 11.366-9.012 0-16.178-5.018-16.436-11.366l-8.654-229.888 8.704-107.264c0.154-6.298 7.372-11.316 16.384-11.316 8.96 0 16.128 4.914 16.384 11.316zM453.12 172.030l7.68 105.882-7.68 263.578c-0.154 7.27-8.396 13.158-18.33 13.158s-18.126-5.888-18.278-13.158l-6.912-263.476c0-0.154 6.912-105.932 6.912-105.932 0.154-7.168 8.346-13.056 18.278-13.056 9.932-0.052 18.176 5.786 18.33 13.004zM526.234 158.922c0.308 0 363.468-0.206 365.824-0.206 72.908 0 131.942 57.14 131.942 127.642s-59.034 127.642-131.942 127.642c-18.126 0-35.328-3.534-51.046-9.932-10.496 114.996-110.284 205.21-231.936 205.21-29.746 0-58.778-5.632-84.378-15.258-9.932-3.738-12.646-7.526-12.698-14.95v-405.044c0.102-7.834 6.35-14.336 14.234-15.104z" />
<glyph unicode="&#xe61d;" glyph-name="d" d="M640-128.002h-448q-27 0-45.5 18.5t-18.5 45.5v896q0 26 18.5 45t45.5 19h448q106 0 181-75t75-181v-512q0-106-75-181t-181-75zM768 639.998q0 53-37.5 90.5t-90.5 37.5h-352q-13 0-22.5-9.5t-9.5-22.5v-704q0-13 9.5-22.5t22.5-9.5h352q53 0 90.5 37.5t37.5 90.5v512z" />
<glyph unicode="&#xe620;" glyph-name="image" d="M0 767.998v-832h1024v832h-1024zM960-0.002h-896v704h896v-704zM704 543.998c0 53.020 42.98 96 96 96s96-42.98 96-96c0-53.020-42.98-96-96-96s-96 42.98-96 96zM896 63.998h-768l192 512 256-320 128 96z" />
<glyph unicode="&#xe621;" glyph-name="images" d="M128 639.998v-640h896v640h-896zM960 106.664l-128 213.334-145.066-120.888-110.934 184.888-384-320v512h768v-469.334zM256 415.998c0 53.020 42.98 96 96 96s96-42.98 96-96c0-53.020-42.98-96-96-96s-96 42.98-96 96zM896 767.998h-896v-640h64v576h832z" />
<glyph unicode="&#xe622;" glyph-name="uniF602" d="M0-128.002v1024h1024v-1024h-1024zM960 831.998h-896v-896h896v896zM896 191.998h-768v576h768v-576z" />
<glyph unicode="&#xe623;" glyph-name="stack" d="M1024 575.998l-512 256-512-256 512-256 512 256zM512 747.028l342.058-171.030-342.058-171.030-342.058 171.030 342.058 171.030zM921.444 435.276l102.556-51.278-512-256-512 256 102.556 51.278 409.444-204.722zM921.444 243.276l102.556-51.278-512-256-512 256 102.556 51.278 409.444-204.722z" />
<glyph unicode="&#xe624;" glyph-name="uniF61C" d="M992-0.002h-704q-13 0-22.5 9.5t-9.5 22.5v32h704v448h32q13 0 22.5-9.5t9.5-22.5v-448q0-13-9.5-22.5t-22.5-9.5zM864 127.998h-704q-13 0-22.5 9.5t-9.5 22.5v32h704v448h32q13 0 22.5-9.5t9.5-22.5v-448q0-13-9.5-22.5t-22.5-9.5zM736 255.998h-704q-13 0-22.5 9.5t-9.5 22.5v448q0 13 9.5 22.5t22.5 9.5h704q13 0 22.5-9.5t9.5-22.5v-448q0-13-9.5-22.5t-22.5-9.5zM704 703.998h-640v-384h640v384z" />
<glyph unicode="&#xe625;" glyph-name="insertpicture" d="M992 63.998q13 0 22.5-9.5t9.5-22.5v-128q0-13-9.5-22.5t-22.5-9.5h-128q-13 0-22.5 9.5t-9.5 22.5v32h-640v-32q0-13-9.5-22.5t-22.5-9.5h-128q-13 0-22.5 9.5t-9.5 22.5v128q0 13 9.5 22.5t22.5 9.5h32v640h-32q-13 0-22.5 9.5t-9.5 22.5v128q0 13 9.5 22.5t22.5 9.5h128q13 0 22.5-9.5t9.5-22.5v-32h640v32q0 13 9.5 22.5t22.5 9.5h128q13 0 22.5-9.5t9.5-22.5v-128q0-13-9.5-22.5t-22.5-9.5h-32v-640h32zM64-48.002q0-7 4.5-11.5t11.5-4.5h32q7 0 11.5 4.5t4.5 11.5v32q0 7-4.5 11.5t-11.5 4.5h-32q-7 0-11.5-4.5t-4.5-11.5v-32zM128 815.998q0 7-4.5 11.5t-11.5 4.5h-32q-7 0-11.5-4.5t-4.5-11.5v-32q0-7 4.5-11.5t11.5-4.5h32q7 0 11.5 4.5t4.5 11.5v32zM832 735.998v32h-640v-32q0-13-9.5-22.5t-22.5-9.5h-32v-640h32q13 0 22.5-9.5t9.5-22.5v-32h640v32q0 13 9.5 22.5t22.5 9.5h32v640h-32q-13 0-22.5 9.5t-9.5 22.5zM960 815.998q0 7-4.5 11.5t-11.5 4.5h-32q-7 0-11.5-4.5t-4.5-11.5v-32q0-7 4.5-11.5t11.5-4.5h32q7 0 11.5 4.5t4.5 11.5v32zM944-0.002h-32q-7 0-11.5-4.5t-4.5-11.5v-32q0-7 4.5-11.5t11.5-4.5h32q7 0 11.5 4.5t4.5 11.5v32q0 7-4.5 11.5t-11.5 4.5zM477 280.998l149 150q18 18 46.5 18t46.5-18l49-49v-254h-140zM352 447.998q-40 0-68 28t-28 68 28 68 68 28 68-28 28-68-28-68-68-28zM367 301.998l173-174h-284v156l18 18q18 19 46.5 19t46.5-19z" />
<glyph unicode="&#xe626;" glyph-name="bubbles" horiz-adv-x="1152" d="M480 767.998c-50.666 0-99.582-7.95-145.386-23.628-42.924-14.694-81.114-35.436-113.502-61.646-60.044-48.59-93.112-110.802-93.112-175.174 0-35.99 10.066-70.948 29.92-103.898 20.686-34.34 51.898-65.794 90.26-90.958 30.44-19.968 50.936-51.952 56.362-87.95 0.902-5.99 1.63-12.006 2.18-18.032 2.722 2.52 5.424 5.114 8.114 7.794 24.138 24.040 56.688 37.312 90.322 37.312 5.348 0 10.718-0.336 16.094-1.018 19.36-2.452 39.124-3.696 58.748-3.696 50.666 0 99.58 7.948 145.384 23.628 42.926 14.692 81.116 35.434 113.504 61.644 60.046 48.59 93.112 110.802 93.112 175.174s-33.066 126.582-93.112 175.174c-32.388 26.212-70.578 46.952-113.504 61.646-45.804 15.678-94.718 23.628-145.384 23.628zM480 895.998v0c265.096 0 480-173.914 480-388.448s-214.904-388.448-480-388.448c-25.458 0-50.446 1.62-74.834 4.71-103.106-102.694-222.172-121.108-341.166-123.814v25.134c64.252 31.354 116 88.466 116 153.734 0 9.106-0.712 18.048-2.030 26.794-108.558 71.214-177.97 179.988-177.97 301.89 0 214.534 214.904 388.448 480 388.448zM996 25.312c0-55.942 36.314-104.898 92-131.772v-21.542c-103.126 2.318-197.786 18.102-287.142 106.126-21.14-2.65-42.794-4.040-64.858-4.040-95.47 0-183.408 25.758-253.614 69.040 144.674 0.506 281.26 46.854 384.834 130.672 52.208 42.252 93.394 91.826 122.414 147.348 30.766 58.866 46.366 121.582 46.366 186.406 0 10.448-0.45 20.836-1.258 31.168 72.57-59.934 117.258-141.622 117.258-231.676 0-104.488-60.158-197.722-154.24-258.764-1.142-7.496-1.76-15.16-1.76-22.966z" />
<glyph unicode="&#xe627;" glyph-name="font" d="M960.5 575.998q-26.5 0-45.5 19t-19 45q0 53-37.5 90.5t-90.5 37.5h-64q-26 0-45-18.5t-19-45.5v-640q0-26 19-45t45.5-19 45-18.5 18.5-45-18.5-45.5-45.5-19h-384q-26 0-45 18.5t-19 45.5 19 45.5 45.5 18.5 45 19 18.5 45v640q0 27-18.5 45.5t-45.5 18.5h-64q-53 0-90.5-37.5t-37.5-90.5q0-26-18.5-45t-45-19-45.5 19-19 45v192q0 26 19 45t45 19h896q26 0 45-19t19-45v-192q0-27-18.5-45.5t-45-18.5z" />
<glyph unicode="&#xe628;" glyph-name="H" d="M832.5-128.002q-26.5 0-45 18.5t-18.5 45.5v352q0 13-9.5 22.5t-22.5 9.5h-449q-13 0-22.5-9.5t-9.5-22.5v-352q0-27-18.5-45.5t-45.5-18.5-45.5 18.5-18.5 45.5v896q0 26 18.5 45t45.5 19 45.5-19 18.5-45v-352q0-13 9.5-22.5t22.5-9.5h449q13 0 22.5 9.5t9.5 22.5v352q0 26 18.5 45t45 19 45.5-18.5 19-45.5v-896q0-27-19-45.5t-45.5-18.5z" />
<glyph unicode="&#xe629;" glyph-name="share2" d="M896-128.002h-768q-53 0-90.5 37.5t-37.5 90.5v768q0 53 37.5 90.5t90.5 37.5h256q26 0 45-19t19-45.5-19-45-45-18.5h-192q-26 0-45-19t-19-45v-640q0-27 18.5-45.5t45.5-18.5h640q26 0 45 18.5t19 45.5v192q0 26 18.5 45t45 19 45.5-19 19-45v-256q0-53-37.5-90.5t-90.5-37.5zM959.5 383.998q-26.5 0-45 18.5t-18.5 45.5v238l-413-413q-17-17-41-17t-41 17-17 41 17 41l413 413h-238q-27 0-45.5 18.5t-18.5 45 18.5 45.5 45.5 19h384q26 0 45-19t19-45v-384q0-27-19-45.5t-45.5-18.5z" />
<glyph unicode="&#xe62a;" glyph-name="layers-alt" horiz-adv-x="1022" d="M0 127.998l512.032-128 511.968 128v-128l-511.968-128-512.032 128zM0 383.998l512.032-128 511.968 128v-128l-511.968-128-512.032 128zM0 639.998l512.032-128 511.968 128v-128l-511.968-128-512.032 128zM0 895.998l512.032-128 511.968 128v-128l-511.968-128-512.032 128z" />
<glyph unicode="&#xe62b;" glyph-name="folder" d="M768 639.998h-256c0 47.104-38.228 85.332-85.332 85.332h-170.668c-70.57 0-128-57.428-128-128v-426.668c0-70.572 57.43-128 128-128h512c70.572 0 128 57.428 128 128v341.332c0 70.572-57.428 128-128 128zM256 639.998h170.668c0-47.104 38.228-85.332 85.332-85.332h256c23.552 0 42.668-19.116 42.668-42.668h-597.332v85.332c0 23.552 19.116 42.668 42.668 42.668zM768 127.998h-512c-23.552 0-42.668 19.116-42.668 42.668v298.666h597.332v-298.666c0-23.552-19.116-42.668-42.668-42.668z" />
<glyph unicode="&#xe62c;" glyph-name="vimeo2" d="M853.31 895.998h-682.62c-93.878 0-170.69-76.816-170.69-170.692v-682.62c0-93.938 76.812-170.688 170.69-170.688h682.62c93.878 0 170.69 76.75 170.69 170.69v682.618c0 93.876-76.812 170.692-170.69 170.692zM812.868 457.872c-33.958-191.296-223.708-353.296-280.78-390.31-57.088-37.006-109.154 14.822-128.038 53.994-21.616 44.708-86.41 286.94-103.368 307.020-16.964 20.038-67.876-20.080-67.876-20.080l-24.692 32.376c0 0 103.382 123.448 182.040 138.878 83.404 16.366 83.28-128.066 103.34-208.242 19.4-77.564 32.44-121.952 49.376-121.952 16.97 0 49.382 43.262 84.852 109.57 35.536 66.376-1.538 125.010-70.972 83.292 27.786 166.652 290.062 206.72 256.118 15.454z" />
<glyph unicode="&#xe62d;" glyph-name="TFicon" horiz-adv-x="920" d="M916.672 591.278l-456.696 304.528-456.64-304.6v-411.432l456.688-304.504 456.648 304.552v411.456zM62.256 440.566v119.112l397.744 265.296 397.76-265.232v-158.44l-397.776-265.264-231.664 154.496 89.28 59.576 142.424-94.952 337.856 225.368-337.936 225.312-397.688-265.272zM370.68 385.534l89.28 59.552 89.312-59.56-89.272-59.536-89.32 59.544zM460.024-53.93l-397.768 265.232v158.448l397.744 265.272 231.696-154.496-89.32-59.584-142.448 94.96-337.8-225.416 337.896-225.288 397.736 265.28v-119.136l-397.736-265.272z" />
<glyph unicode="&#xe62e;" glyph-name="loop-alt2" d="M384 575.998h-128v64c0 35.264 28.736 64 64 64h384c35.264 0 64-28.736 64-64v-64h128v64c0 105.888-86.112 192-192 192h-384c-105.888 0-192-86.112-192-192v-64h-128l192-256 192 256zM832 447.998l-192-256h128v-64c0-35.264-28.736-64-64-64h-384c-35.264 0-64 28.736-64 64v64h-128v-64c0-105.888 86.112-192 192-192h384c105.888 0 192 86.112 192 192v64h128l-192 256z" />
<glyph unicode="&#xe62f;" glyph-name="anchor" d="M927.968 284.958l-36.352-247.328-73.568 71.36c-58.272-49.248-166.336-116.256-323.328-116.256-157.92 0-267.136 65.376-325.248 112.224l-67.136-65.12-38.336 245.088 252.576-37.184-69.6-67.552c48.832-36.256 125.44-79.968 201.728-79.968l-0.224 403.488c-55.712 19.392-95.808 70.624-95.808 131.36 0 77.376 64.608 140.096 144.32 140.096 79.68 0 144.32-62.72 144.32-140.096 0-61.664-41.344-113.44-98.368-132.128 0.352-78.72 1.632-404.224-0.128-404.224 72.96 0 148.288 47.488 197.344 85.888l-65.024 63.136 252.832 37.216zM571.392 637.342c0 39.872-33.312 72.224-74.4 72.224s-74.432-32.352-74.432-72.224c0-39.904 33.344-72.256 74.432-72.256s74.4 32.352 74.4 72.256z" />
<glyph unicode="&#xe631;" glyph-name="ellipsis" d="M153.6 496.638c-62.208 0-112.64-50.432-112.64-112.64s50.432-112.64 112.64-112.64 112.64 50.432 112.64 112.64c0 62.208-50.432 112.64-112.64 112.64zM512 496.638c-62.208 0-112.64-50.432-112.64-112.64s50.432-112.64 112.64-112.64 112.588 50.432 112.588 112.64c0 62.208-50.38 112.64-112.588 112.64zM870.4 496.638c-62.208 0-112.64-50.432-112.64-112.64s50.432-112.64 112.64-112.64 112.64 50.432 112.64 112.64c0 62.208-50.432 112.64-112.64 112.64z" />
<glyph unicode="&#xe632;" glyph-name="tag" d="M938.068 519.634l-120.96 376.022-390.656-120.746-341.164-630.486 503.38-272.084 340.308 628.948c0.256 0.428 0.512 0.896 0.726 1.28l9.044 16.726-0.682 0.342zM756.48 540.37c-30.804-57.088-102.1-78.336-159.232-47.488-57.13 30.932-78.336 102.188-47.446 159.188 30.848 57.13 102.23 78.336 159.274 47.488 57.088-30.848 78.336-102.144 47.404-159.188z" />
<glyph unicode="&#xe633;" glyph-name="file" d="M768-128h-575.999c-34.026 0-66.651 13.549-90.668 37.651-24.018 24.096-37.451 56.774-37.332 90.797v767.104c-0.035 70.78 57.22 128.236 128 128.448h416c37.305-1.122 72.902-15.903 100.031-41.536l146.432-146.432c25.581-27.165 40.352-62.739 41.536-100.032v-608c0-70.694-57.306-128-128-128v0 0zM192 0h576v512h-128c-70.692 0-128 57.308-128 128v128c-122.816 0-320 0-320-0.384v-767.616zM640 741.5v-101.504h101.568l-101.568 101.504z" />
<glyph unicode="&#xe634;" glyph-name="sidebar" d="M1024 768v-768c0-70.72-57.28-128-128-128h-768c-70.72 0-128 57.28-128 128v768c0 70.72 57.28 128 128 128h768c70.72 0 128-57.28 128-128zM128 768v-768h768v768h-768zM576 0v768h128v-768h-128z" />
<glyph unicode="&#xe635;" glyph-name="header" d="M128 896h768c70.72 0 128-57.28 128-128v-768c0-70.72-57.28-128-128-128h-768c-70.72 0-128 57.28-128 128v768c0 70.72 57.28 128 128 128zM128 0h768v768h-768v-768zM896 448h-768v128h768v-128z" />
<glyph unicode="&#xe636;" glyph-name="page_title" d="M896-128h-768c-70.72 0-128 57.28-128 128v768c0 70.72 57.28 128 128 128h768c70.72 0 128-57.28 128-128v-768c0-70.72-57.28-128-128-128zM896 768h-768v-768h768v768zM128 640v-320h768v320z" />
<glyph unicode="&#xe637;" glyph-name="footer" d="M896-128h-768c-70.72 0-128 57.28-128 128v768c0 70.72 57.28 128 128 128h768c70.72 0 128-57.28 128-128v-768c0-70.72-57.28-128-128-128zM896 768h-768v-768h768v768zM128 320h768v-128h-768v128z" />
<glyph unicode="&#xe63e;" glyph-name="drive" d="M956.62 312.42l-161.178 383.59c-12.698 25.6-46.49 46.542-75.11 46.542h-416.614c-28.62 0-62.414-20.942-75.162-46.542l-161.126-383.59c-12.8-25.6-19.406-69.632-14.694-97.894l34.816-188.722c4.71-28.212 31.898-51.302 60.466-51.302h728.064c28.62 0 55.808 23.092 60.518 51.302l34.816 188.722c4.558 28.212-1.996 72.294-14.798 97.894zM886.784 177.968l-13.21-76.902c-3.994-29.542-30.618-53.71-59.086-53.71h-604.98c-28.518 0-55.092 24.166-59.086 53.71l-13.26 76.902c-3.942 29.542 16.128 53.71 44.698 53.71h660.274c28.57-0.052 48.64-24.166 44.646-53.71z" />
<glyph unicode="&#xe640;" glyph-name="pen" d="M212 318.59l-104.416-317.952 139.552 140.064c-9.6 24.224-7.232 65.6 12.384 85.184 26.272 26.304 69.536 25.696 95.808-0.608 26.304-26.304 27.712-70.336 1.44-96.64-20-20-63.936-21.152-88.448-10.784l-138.336-138.72 310.432 109.056 113.056 203.648-137.728 135.872-203.744-109.12zM735.392 788.83c0 0-192.352-192.32-222.016-222.016-29.728-29.696-45.248-141.408-45.248-141.408l86.24-86.272c0 0 108.896 15.552 140 46.688 31.136 31.104 222.016 222.016 222.016 222.016l-180.992 180.992z" />
<glyph unicode="&#xe641;" glyph-name="file-add" d="M889 848h-580c-48.050 0-87-38.951-87-87v-87h-87c-48.049 0-87-38.95-87-87v-580c0-48.050 38.951-87 87-87h580c48.050 0 87 38.95 87 87v87h87c48.050 0 87 38.95 87 87v580c0 48.049-38.95 87-87 87zM704.125 7h-558.25c-2.885 0-5.65 1.145-7.69 3.184s-3.185 4.805-3.185 7.691v558.25c0 2.885 1.146 5.649 3.185 7.691 2.040 2.040 4.805 3.184 7.69 3.184h76.125v-406c0-48.050 38.95-87 87-87h406v-76.125c0-2.885-1.145-5.649-3.184-7.691-2.041-2.040-4.805-3.184-7.691-3.184zM878.125 181h-558.25c-2.885 0-5.649 1.145-7.691 3.184-2.040 2.041-3.184 4.805-3.184 7.691v558.25c0 2.885 1.145 5.65 3.184 7.69s4.805 3.185 7.691 3.185h558.25c2.885 0 5.649-1.146 7.691-3.185 2.040-2.040 3.184-4.805 3.184-7.69v-558.25c0-2.885-1.145-5.649-3.184-7.691-2.041-2.040-4.805-3.184-7.691-3.184zM400.142 640.858h266.177v-84.927h-266.176v84.927zM400.142 513.465h398.75v-42.465h-398.75v42.465zM400.142 428.535h398.75v-42.465h-398.75v42.465zM400.142 343.608h398.75v-42.465h-398.75v42.465z" />
<glyph unicode="&#xe645;" glyph-name="plus2" d="M778.188 435.198h-215.040v215.040c0 28.262-22.886 30.72-51.2 30.72-28.262 0-51.2-2.406-51.2-30.72v-215.040h-214.99c-28.314 0-30.72-22.938-30.72-51.2s2.406-51.2 30.72-51.2h214.99v-215.040c0-28.262 22.938-30.72 51.2-30.72 28.314 0 51.2 2.458 51.2 30.72v215.040h215.040c28.314 0 30.77 22.938 30.77 51.2s-2.458 51.2-30.77 51.2z" />
<glyph unicode="&#xe900;" glyph-name="privacy" horiz-adv-x="896" d="M767.8 279.4l47.8 125.2c8 21-7.4 43.4-30 43.4h-117c22 37.8 35.6 81.2 35.6 128v0.6c78.4 15.6 128 38.2 128 63.4 0 26.6-54.6 50.2-140.2 66-18.4 65.6-54 131.6-81.2 165.6-19 23.8-51.8 31.2-79 17.6l-55.2-27.6c-18-9-39.2-9-57.2 0l-55.2 27.6c-27.2 13.6-60 6.2-79-17.6-27-34-62.8-100-81.2-165.6-85.4-15.8-140-39.4-140-66 0-25.2 49.6-47.8 128-63.4v-0.6c0-46.8 13.6-90.2 35.6-128h-115c-23 0-38.4-23.4-29.4-44.6l51.6-120.4c-80.2-46.6-134.8-132.4-134.8-231.8v-89.6c0-49.4 40.2-89.6 89.6-89.6h716.8c49.4 0 89.6 40.2 89.6 89.6v89.6c0 96.8-51.6 180.8-128.2 228.2zM352-64l-83.2 384 99.2-64 48-80-64-240zM544-64l-64 240 48 80 99.2 64-83.2-384zM627.4 533c-7.8-23.8-14-49.2-33-66.8-20.2-18.6-96-44.8-128 50-5.6 16.8-30.8 16.8-36.6 0-34-100.4-112-64.8-128-50-19 17.6-25.4 43-33 66.8-1.6 5-12.6 11.4-12.6 11.6v21.6c56.6-7.2 122-11.6 192-11.6s135.4 4.2 192 11.6v-21.6c-0.2-0.2-11.2-6.4-12.8-11.6z" />
<glyph unicode="&#xe901;" glyph-name="FB_logo_black-solid-1" horiz-adv-x="926" d="M463.622-119.534c-16.126 0-31.849 4.031-45.556 12.094l-364.447 206.816c-28.22 16.126-45.959 45.959-45.959 78.211v413.631c0 32.252 17.335 62.085 45.959 78.211l364.447 206.816c13.707 7.66 29.43 11.691 45.556 11.691s31.849-4.031 45.556-12.094l364.447-206.816c28.22-16.126 45.556-45.959 45.556-78.211v-413.631c0-32.252-17.335-62.085-45.959-78.211l-364.044-206.816c-13.707-7.66-29.43-11.691-45.556-11.691zM463.622 841.172c-7.66 0-15.32-2.016-22.173-5.644l-364.044-207.219c-13.707-7.66-21.77-21.77-21.77-37.090v-413.631c0-15.32 8.466-29.43 21.77-37.090l364.447-206.816c12.901-7.257 31.043-7.257 44.346 0l364.447 206.816c13.707 7.66 21.77 21.77 21.77 37.090v413.631c0 15.32-8.466 29.43-21.77 37.090l-364.447 206.816c-7.257 4.031-14.917 6.047-22.576 6.047zM393.474 42.935c-8.869 0-17.335 2.419-24.995 7.257l-252.372 156.825c-14.11 8.869-22.576 24.592-22.576 41.524s8.466 32.655 22.576 41.524l41.121 26.205-41.121 26.205c-14.11 8.869-22.576 24.592-22.576 41.524s8.466 32.655 22.576 41.524l41.121 26.205-41.121 26.205c-14.11 8.869-22.576 24.592-22.576 41.524s8.466 32.655 22.576 41.524l252.775 157.228c7.66 4.838 16.126 7.257 24.995 7.257 26.205 0 47.572-21.77 47.572-48.781v-74.986c0-16.932-8.466-32.655-22.576-41.524l-175.37-108.447 63.294-40.315 131.83 83.452c14.917 9.676 35.074 9.676 50.394 0l131.83-83.452 63.294 40.315-174.967 108.044c-14.11 8.869-22.576 24.995-22.576 41.524v74.986c0 13.304 5.241 25.802 14.513 35.074 8.869 8.869 20.964 13.707 33.461 13.707 8.869 0 17.335-2.419 24.995-7.257l252.372-156.825c14.11-8.869 22.576-24.592 22.576-41.524s-8.466-32.655-22.576-41.524l-41.121-26.205 41.121-26.205c14.11-8.869 22.576-24.592 22.576-41.524s-8.466-32.655-22.576-41.524l-41.121-26.205 41.121-26.205c14.11-8.869 22.576-24.592 22.576-41.524s-8.466-32.655-22.576-41.524l-252.775-157.228c-7.66-4.838-16.126-7.257-24.995-7.257-26.205 0-47.572 21.77-47.572 48.781v74.986c0 16.932 8.466 32.655 22.576 41.524l174.967 108.447-63.294 40.315-131.83-83.452c-14.917-9.676-35.074-9.676-50.394 0l-131.83 83.452-63.294-40.315 174.967-108.044c14.11-8.869 22.576-24.995 22.576-41.524v-74.986c0.403-27.011-20.964-48.781-47.572-48.781zM200.365 289.26l-60.069-37.896c-0.806-0.403-1.209-1.209-1.209-2.419s0.403-2.016 1.209-2.419l252.372-156.825c0.403-0.403 0.806-0.403 0.806-0.403s2.016 0.403 2.016 2.419v74.986c0 1.209-0.403 2.016-1.209 2.419l-193.915 120.139zM726.879 289.26l-194.318-120.139c-0.403-0.403-0.806-1.209-0.806-2.419v-74.986c0-2.419 2.016-2.419 2.016-2.419s0.403 0 0.806 0.403l252.775 157.228c0.403 0.403 0.806 1.209 0.806 2.419s-0.403 2.016-1.209 2.419l-60.069 37.493zM349.934 384l112.882-71.761c0.403 0 1.209 0 1.613 0l112.882 71.761-112.882 71.761c-0.403 0-1.209 0-1.613 0l-112.882-71.761zM663.584 384l63.698-40.315 59.666 37.896c0.806 0.403 1.209 1.209 1.209 2.419s-0.403 2.016-1.209 2.419l-59.666 37.896-63.698-40.315zM200.365 424.718l-59.666-37.896c-0.806-0.403-1.209-1.209-1.209-2.419s0.403-2.016 1.209-2.419l59.666-37.896 63.698 40.315-63.698 40.315zM393.474 679.106c0 0-0.403 0-0.806-0.403l-252.775-157.228c-0.403-0.403-0.806-1.209-0.806-2.419s0.403-2.016 1.209-2.419l60.069-37.896 194.318 120.139c0.403 0.403 0.806 1.209 0.806 2.419v75.389c0 2.419-2.016 2.419-2.016 2.419zM533.77 679.106c-0.403 0-0.806 0-1.209-0.403s-0.806-1.613-0.806-2.016v-74.986c0-1.209 0.403-2.016 1.209-2.419l193.915-120.139 60.069 37.896c0.806 0.403 1.209 1.209 1.209 2.419s-0.403 2.016-1.209 2.419l-252.372 156.825c-0.806 0.403-0.806 0.403-0.806 0.403z" />
<glyph unicode="&#xe902;" glyph-name="calendar-check-regular" horiz-adv-x="896" d="M800 768h-96v104c0 13.254-10.746 24-24 24h-80c-13.254 0-24-10.746-24-24v-104h-256v104c0 13.254-10.746 24-24 24h-80c-13.254 0-24-10.746-24-24v-104h-96c-53.020 0-96-42.98-96-96v-704c0-53.020 42.98-96 96-96h704c53.020 0 96 42.98 96 96v704c0 53.020-42.98 96-96 96zM788-32h-680c-6.627 0-12 5.373-12 12v0 596h704v-596c0-6.627-5.373-12-12-12v0zM682.302 369.3l-284.618-282.338c-9.41-9.334-24.606-9.274-33.942 0.136l-150.182 151.398c-9.334 9.41-9.274 24.606 0.136 33.942l45.438 45.072c9.41 9.334 24.606 9.274 33.94-0.138l88.208-88.922 222.144 220.362c9.41 9.334 24.606 9.274 33.942-0.136l45.072-45.436c9.334-9.41 9.272-24.606-0.138-33.94z" />
<glyph unicode="&#xe903;" glyph-name="calendar-alt-regular" horiz-adv-x="896" d="M296 320h-80c-13.2 0-24 10.8-24 24v80c0 13.2 10.8 24 24 24h80c13.2 0 24-10.8 24-24v-80c0-13.2-10.8-24-24-24zM512 344v80c0 13.2-10.8 24-24 24h-80c-13.2 0-24-10.8-24-24v-80c0-13.2 10.8-24 24-24h80c13.2 0 24 10.8 24 24zM704 344v80c0 13.2-10.8 24-24 24h-80c-13.2 0-24-10.8-24-24v-80c0-13.2 10.8-24 24-24h80c13.2 0 24 10.8 24 24zM512 152v80c0 13.2-10.8 24-24 24h-80c-13.2 0-24-10.8-24-24v-80c0-13.2 10.8-24 24-24h80c13.2 0 24 10.8 24 24zM320 152v80c0 13.2-10.8 24-24 24h-80c-13.2 0-24-10.8-24-24v-80c0-13.2 10.8-24 24-24h80c13.2 0 24 10.8 24 24zM704 152v80c0 13.2-10.8 24-24 24h-80c-13.2 0-24-10.8-24-24v-80c0-13.2 10.8-24 24-24h80c13.2 0 24 10.8 24 24zM896 672v-704c0-53-43-96-96-96h-704c-53 0-96 43-96 96v704c0 53 43 96 96 96h96v104c0 13.2 10.8 24 24 24h80c13.2 0 24-10.8 24-24v-104h256v104c0 13.2 10.8 24 24 24h80c13.2 0 24-10.8 24-24v-104h96c53 0 96-43 96-96zM800-20v596h-704v-596c0-6.6 5.4-12 12-12h680c6.6 0 12 5.4 12 12z" />
<glyph unicode="&#xe904;" glyph-name="close-fb" horiz-adv-x="1047" d="M173.887-73.258c0 3.22-3.22 3.22-3.22 6.44-35.421 35.421-67.623 67.623-103.044 103.044-3.22 0-3.22 3.22-6.44 3.22 115.925 115.925 228.629 231.849 344.553 344.553-115.925 115.925-228.629 231.849-344.553 344.553 38.642 38.642 77.283 77.283 115.925 115.925 112.704-112.704 228.629-228.629 344.553-344.553 115.925 115.925 228.629 228.629 344.553 344.553 35.421-38.642 74.063-77.283 112.704-115.925-112.704-112.704-228.629-228.629-344.553-344.553 115.925-115.925 228.629-228.629 344.553-344.553-3.22-3.22-3.22-3.22-6.44-6.44-35.421-35.421-70.843-70.843-103.044-103.044 0 0 0 0-3.22-3.22 0 0-3.22 0-3.22 0 0 3.22-3.22 3.22-3.22 6.44-112.704 112.704-222.189 222.189-334.893 334.893-3.22 3.22-3.22 3.22-6.44 6.44-3.22-3.22-3.22-3.22-6.44-6.44-106.264-112.704-218.969-225.409-328.453-334.893-3.22-3.22-3.22-3.22-9.66-6.44 3.22 0 3.22 0 0 0z" />
<glyph unicode="&#xe905;" glyph-name="caret-up" horiz-adv-x="622" d="M603.424 246.866c0-20-16.571-36.571-36.571-36.571h-512c-20 0-36.571 16.571-36.571 36.571 0 9.714 4 18.857 10.857 25.714l256 256c6.857 6.857 16 10.857 25.714 10.857s18.857-4 25.714-10.857l256-256c6.857-6.857 10.857-16 10.857-25.714z" />
<glyph unicode="&#xe906;" glyph-name="caret-down" horiz-adv-x="622" d="M603.424 521.134c0 20-16.571 36.571-36.571 36.571h-512c-20 0-36.571-16.571-36.571-36.571 0-9.714 4-18.857 10.857-25.714l256-256c6.857-6.857 16-10.857 25.714-10.857s18.857 4 25.714 10.857l256 256c6.857 6.857 10.857 16 10.857 25.714z" />
<glyph unicode="&#xe907;" glyph-name="icon-move" d="M575.488 706.528v-258.016h256v128l192.512-192.512-192.512-192.48v130.976h-256v-258.016h128.992l-192.48-192.48-192.512 192.48h128v258.016h-256v-129.984l-191.488 191.488 191.488 191.488v-126.976h256v258.016h-124.992l189.504 189.472 189.504-189.472h-126.016z" />
<glyph unicode="&#xe908;" glyph-name="color-dropper" d="M986.51 858.51c-49.988 49.986-131.032 49.986-181.020 0l-172.118-172.118-121.372 121.372-135.764-135.764 106.426-106.426-472.118-472.118c-8.048-8.048-11.468-18.958-10.3-29.456h-0.244v-160c0-17.674 14.328-32 32-32h160c0 0 2.664 0 4 0 9.212 0 18.426 3.516 25.456 10.544l472.118 472.118 106.426-106.426 135.764 135.764-121.372 121.372 172.118 172.118c49.986 49.988 49.986 131.032 0 181.020zM173.090-64h-109.090v109.090l469.574 469.572 109.088-109.088-469.572-469.574z" />
<glyph unicode="&#xe909;" glyph-name="align-center" d="M768 0c0 35.328-28.672 64-64 64h-384c-35.328 0-64-28.672-64-64s28.672-64 64-64h384c35.328 0 64 28.672 64 64zM64 192h896c35.328 0 64 28.672 64 64s-28.672 64-64 64h-896c-35.328 0-64-28.672-64-64s28.672-64 64-64zM896 512c0 35.328-28.672 64-64 64h-640c-35.328 0-64-28.672-64-64s28.672-64 64-64h640c35.328 0 64 28.672 64 64zM64 704h896c35.328 0 64 28.672 64 64s-28.672 64-64 64h-896c-35.328 0-64-28.672-64-64s28.672-64 64-64z" />
<glyph unicode="&#xe90a;" glyph-name="align-justify" d="M64-64h896c35.328 0 64 28.672 64 64s-28.672 64-64 64h-896c-35.328 0-64-28.672-64-64s28.672-64 64-64zM64 192h896c35.328 0 64 28.672 64 64s-28.672 64-64 64h-896c-35.328 0-64-28.672-64-64s28.672-64 64-64zM64 448h896c35.328 0 64 28.672 64 64s-28.672 64-64 64h-896c-35.328 0-64-28.672-64-64s28.672-64 64-64zM64 704h896c35.328 0 64 28.672 64 64s-28.672 64-64 64h-896c-35.328 0-64-28.672-64-64s28.672-64 64-64z" />
<glyph unicode="&#xe90b;" glyph-name="align-left" d="M128-32c0-17.674-14.327-32-32-32s-32 14.326-32 32v832c0 17.673 14.327 32 32 32s32-14.327 32-32v-832zM192 448c0-17.674 14.327-32 32-32h448c17.674 0 32 14.326 32 32v96c0 17.674-14.326 32-32 32h-448c-17.673 0-32-14.326-32-32v-96zM544 352c17.674 0 32-14.326 32-32v-96c0-17.674-14.326-32-32-32h-320c-17.673 0-32 14.326-32 32v96c0 17.674 14.327 32 32 32h320z" />
<glyph unicode="&#xe90c;" glyph-name="align-right" d="M896-32c0-17.674 14.326-32 32-32s32 14.326 32 32v832c0 17.673-14.326 32-32 32s-32-14.327-32-32v-832zM832 448c0-17.674-14.326-32-32-32h-448c-17.674 0-32 14.326-32 32v96c0 17.674 14.326 32 32 32h448c17.674 0 32-14.326 32-32v-96zM480 352c-17.674 0-32-14.326-32-32v-96c0-17.674 14.326-32 32-32h320c17.674 0 32 14.326 32 32v96c0 17.674-14.326 32-32 32h-320z" />
<glyph unicode="&#xe90d;" glyph-name="h1" d="M620.902-68.672c-16.255 0-29.257 4.876-39.009 16.255-11.378 11.378-16.255 24.382-16.255 40.634v310.45c0 8.127-3.25 14.629-8.127 19.505s-13.003 8.127-19.505 8.127h-396.597c-8.127 0-14.629-3.25-19.505-8.127s-8.127-13.003-8.127-19.505v-310.45c0-16.255-4.876-29.257-16.255-40.634s-24.382-16.255-40.634-16.255-29.257 4.876-40.634 16.255-16.255 24.382-16.255 40.634v789.942c0 14.629 4.876 29.257 16.255 39.009 11.378 11.378 24.382 16.255 40.634 16.255s29.257-4.876 40.634-16.255c11.378-11.378 16.255-24.382 16.255-39.009v-310.45c0-8.127 3.25-14.629 8.127-19.505s13.003-8.127 19.505-8.127h396.597c8.127 0 14.629 3.25 19.505 8.127s8.127 13.003 8.127 19.505v310.45c0 14.629 4.876 29.257 16.255 39.009 11.378 11.378 24.382 16.255 39.009 16.255s29.257-4.876 40.634-16.255c11.378-11.378 16.255-24.382 16.255-40.634v-789.942c0-16.255-4.876-29.257-16.255-40.634-11.378-8.127-24.382-14.629-40.634-14.629zM932.978 316.546v323.453c0 16.255 0 30.882 0 48.762 0 16.255 1.626 32.508 1.626 48.762-6.502-8.127-14.629-14.629-19.505-19.505-6.502-4.876-13.003-11.378-21.131-17.879l-56.889-47.136-48.762 60.139 154.413 123.53h81.27v-520.126h-91.023z" />
<glyph unicode="&#xe90e;" glyph-name="h2" d="M566.091-31.676c-14.82 0-26.675 4.446-35.566 14.82-10.374 10.374-14.82 22.229-14.82 37.047v283.045c0 7.409-2.963 13.337-7.409 17.783s-11.855 7.409-17.783 7.409h-361.586c-7.409 0-13.337-2.963-17.783-7.409s-7.409-11.855-7.409-17.783v-283.045c0-14.82-4.446-26.675-14.82-37.047s-22.229-14.82-37.047-14.82-26.675 4.446-37.047 14.82-14.82 22.229-14.82 37.047v720.208c0 13.337 4.446 26.675 14.82 35.566 10.374 10.374 22.229 14.82 37.047 14.82s26.675-4.446 37.047-14.82c10.374-10.374 14.82-22.229 14.82-35.566v-283.045c0-7.409 2.963-13.337 7.409-17.783s11.855-7.409 17.783-7.409h361.586c7.409 0 13.337 2.963 17.783 7.409s7.409 11.855 7.409 17.783v283.045c0 13.337 4.446 26.675 14.82 35.566 10.374 10.374 22.229 14.82 35.566 14.82s26.675-4.446 37.047-14.82c10.374-10.374 14.82-22.229 14.82-37.047v-720.208c0-14.82-4.446-26.675-14.82-37.047-10.374-7.409-22.229-13.337-37.047-13.337zM699.463 319.536v62.24l120.035 121.517c23.71 23.71 42.975 44.458 59.276 62.24 14.82 17.783 26.675 34.084 34.084 48.903s10.374 31.12 10.374 48.903c0 20.747-5.928 37.047-19.265 47.421s-29.638 16.301-48.903 16.301c-20.747 0-38.53-4.446-54.83-11.855s-34.084-19.265-53.349-35.566l-45.939 56.313c19.265 16.301 41.493 31.12 66.685 44.458s56.313 19.265 91.879 19.265c45.939 0 81.505-11.855 108.18-35.566s40.012-53.349 40.012-91.879c0-25.192-4.446-48.903-14.82-71.131-10.374-20.747-25.192-42.975-42.975-63.722-19.265-20.747-41.493-44.458-68.168-69.65l-74.096-72.613v-2.963h216.359v-72.613h-324.538z" />
<glyph unicode="&#xe90f;" glyph-name="h3" d="M569.387-34.843c-14.906 0-26.83 4.472-35.773 14.906-10.434 10.434-14.906 22.358-14.906 37.263v284.692c0 7.452-2.981 13.415-7.452 17.887s-11.924 7.452-17.887 7.452h-363.691c-7.452 0-13.415-2.981-17.887-7.452s-7.452-11.924-7.452-17.887v-284.692c0-14.906-4.472-26.83-14.906-37.263s-22.358-14.906-37.263-14.906-26.83 4.472-37.263 14.906-14.906 22.358-14.906 37.263v724.401c0 13.415 4.472 26.83 14.906 35.773 10.434 10.434 22.358 14.906 37.263 14.906s26.83-4.472 37.263-14.906c10.434-10.434 14.906-22.358 14.906-35.773v-284.692c0-7.452 2.981-13.415 7.452-17.887s11.924-7.452 17.887-7.452h363.691c7.452 0 13.415 2.981 17.887 7.452s7.452 11.924 7.452 17.887v284.692c0 13.415 4.472 26.83 14.906 35.773 10.434 10.434 22.358 14.906 35.773 14.906s26.83-4.472 37.263-14.906c10.434-10.434 14.906-22.358 14.906-37.263v-724.401c0-14.906-4.472-26.83-14.906-37.263-10.434-7.452-22.358-13.415-37.263-13.415zM839.174 312.453c-26.83 0-50.678 1.491-73.036 5.963-20.867 4.472-41.735 10.434-62.602 19.378v74.527c20.867-10.434 41.735-17.887 64.093-23.848s43.226-7.452 64.093-7.452c38.754 0 65.584 7.452 81.98 20.867s23.848 32.791 23.848 56.641c0 23.848-10.434 43.226-29.811 53.66-19.378 11.924-50.678 17.887-92.414 17.887h-38.754v67.074h40.245c37.263 0 65.584 7.452 83.47 20.867s26.83 31.302 26.83 53.66c0 19.378-5.963 34.282-19.378 44.716s-31.302 14.906-53.66 14.906c-23.848 0-46.206-4.472-64.093-11.924s-34.282-16.396-47.697-23.848l-38.754 58.131c17.887 13.415 38.754 25.339 64.093 34.282s55.15 14.906 90.923 14.906c49.188 0 86.451-10.434 113.281-31.302 25.339-20.867 38.754-49.188 38.754-83.47 0-32.791-8.943-59.621-28.32-78.999s-43.226-32.791-73.036-38.754v-2.981c77.508-8.943 114.771-46.206 114.771-113.281 0-26.83-5.963-50.678-19.378-73.036-13.415-20.867-34.282-38.754-61.112-50.678-25.339-11.924-61.112-17.887-104.338-17.887z" />
<glyph unicode="&#xe910;" glyph-name="h4" d="M554.849-21.242c-14.525 0-26.145 4.357-34.86 14.525-10.168 10.168-14.525 21.787-14.525 36.312v277.424c0 7.262-2.905 13.072-7.262 17.43s-11.62 7.262-17.43 7.262h-354.406c-7.262 0-13.072-2.905-17.43-7.262s-7.262-11.62-7.262-17.43v-277.424c0-14.525-4.357-26.145-14.525-36.312s-21.787-14.525-36.312-14.525-26.145 4.357-36.312 14.525-14.525 21.787-14.525 36.312v705.906c0 13.072 4.357 26.145 14.525 34.86 10.168 10.168 21.787 14.525 36.312 14.525s26.145-4.357 36.312-14.525c10.168-10.168 14.525-21.787 14.525-34.86v-277.424c0-7.262 2.905-13.072 7.262-17.43s11.62-7.262 17.43-7.262h354.406c7.262 0 13.072 2.905 17.43 7.262s7.262 11.62 7.262 17.43v277.424c0 13.072 4.357 26.145 14.525 34.86 10.168 10.168 21.787 14.525 34.86 14.525s26.145-4.357 36.312-14.525c10.168-10.168 14.525-21.787 14.525-36.312v-705.906c0-14.525-4.357-26.145-14.525-36.312-10.168-7.262-21.787-13.072-36.312-13.072zM880.205 322.996v100.221h-207.705v65.361l209.157 300.663h81.339v-297.759h61.004v-68.267h-61.004v-100.221h-82.791zM748.029 490.032h132.176v111.841c0 17.43 0 34.86 1.453 50.837 0 15.977 1.453 29.050 1.453 37.764h-2.905c-4.357-8.715-8.715-15.977-13.072-24.692s-8.715-15.977-14.525-23.239l-104.579-152.511z" />
<glyph unicode="&#xe911;" glyph-name="h5" d="M567.733-30.653c-14.863 0-26.752 4.459-35.669 14.863-10.404 10.404-14.863 22.293-14.863 37.155v283.866c0 7.431-2.972 13.376-7.431 17.835s-11.889 7.431-17.835 7.431h-362.635c-7.431 0-13.376-2.972-17.835-7.431s-7.431-11.889-7.431-17.835v-283.866c0-14.863-4.459-26.752-14.863-37.155s-22.293-14.863-37.155-14.863-26.752 4.459-37.155 14.863-14.863 22.293-14.863 37.155v722.297c0 13.376 4.459 26.752 14.863 35.669 10.404 10.404 22.293 14.863 37.155 14.863s26.752-4.459 37.155-14.863c10.404-10.404 14.863-22.293 14.863-35.669v-283.866c0-7.431 2.972-13.376 7.431-17.835s11.889-7.431 17.835-7.431h362.635c7.431 0 13.376 2.972 17.835 7.431s7.431 11.889 7.431 17.835v283.866c0 13.376 4.459 26.752 14.863 35.669 10.404 10.404 22.293 14.863 35.669 14.863s26.752-4.459 37.155-14.863c10.404-10.404 14.863-22.293 14.863-37.155v-722.297c0-14.863-4.459-26.752-14.863-37.155-10.404-7.431-22.293-13.376-37.155-13.376zM841.195 315.635c-26.752 0-50.531 1.487-71.338 5.945s-40.128 10.404-56.476 19.321v74.311c16.348-8.917 35.669-16.348 57.963-22.293 23.779-5.945 44.587-8.917 65.393-8.917 31.211 0 54.989 7.431 72.824 20.807 17.835 14.863 28.237 35.669 28.237 65.393 0 25.265-8.917 46.072-25.265 60.935s-43.1 22.293-78.769 22.293c-11.889 0-25.265-1.487-40.128-2.972s-25.265-4.459-35.669-7.431l-35.669 20.807 17.835 234.821h251.17v-74.311h-178.344l-8.917-108.493c7.431 1.487 16.348 2.972 26.752 4.459s23.779 2.972 40.128 2.972c29.724 0 56.476-5.945 80.255-16.348 22.293-11.889 40.128-28.237 53.504-49.045s19.321-47.559 19.321-78.769c0-50.531-16.348-90.659-47.559-118.896-31.211-31.211-77.283-44.587-135.245-44.587z" />
<glyph unicode="&#xe912;" glyph-name="h6" d="M564.456-31.215c-14.777 0-26.597 4.433-35.464 14.777-10.344 10.344-14.777 22.165-14.777 36.94v282.228c0 7.388-2.955 13.299-7.388 17.732s-11.821 7.388-17.732 7.388h-360.543c-7.388 0-13.299-2.955-17.732-7.388s-7.388-11.821-7.388-17.732v-282.228c0-14.777-4.433-26.597-14.777-36.94s-22.165-14.777-36.94-14.777-26.597 4.433-36.94 14.777-14.777 22.165-14.777 36.94v718.129c0 13.299 4.433 26.597 14.777 35.464 10.344 10.344 22.165 14.777 36.94 14.777s26.597-4.433 36.94-14.777c10.344-10.344 14.777-22.165 14.777-35.464v-282.228c0-7.388 2.955-13.299 7.388-17.732s11.821-7.388 17.732-7.388h360.543c7.388 0 13.299 2.955 17.732 7.388s7.388 11.821 7.388 17.732v282.228c0 13.299 4.433 26.597 14.777 35.464 10.344 10.344 22.165 14.777 35.464 14.777s26.597-4.433 36.94-14.777c10.344-10.344 14.777-22.165 14.777-36.94v-718.129c0-14.777-4.433-26.597-14.777-36.94-10.344-7.388-22.165-13.299-36.94-13.299zM868.848 313.075c-31.031 0-60.583 7.388-85.703 22.165s-45.807 38.419-60.583 67.971c-14.777 31.031-22.165 69.449-22.165 116.733 0 28.075 1.478 54.672 5.911 81.27s10.344 51.717 20.687 75.359c10.344 23.641 23.641 44.329 39.896 63.538 16.253 17.732 38.419 32.508 65.016 42.851s59.105 16.253 97.524 16.253c8.865 0 19.209 0 31.031-1.478s22.165-2.955 29.552-4.433v-67.971c-8.865 1.478-17.732 2.955-28.075 4.433s-22.165 1.478-33.985 1.478c-36.94 0-66.493-7.388-87.18-22.165s-35.464-33.985-44.329-59.105c-8.865-25.12-14.777-53.195-16.253-82.748h4.433c8.865 14.777 22.165 28.075 38.419 39.896 16.253 10.344 38.419 16.253 66.493 16.253 41.373 0 73.882-13.299 97.524-38.419 25.12-25.12 36.94-62.060 36.94-109.344 0-50.239-13.299-90.136-41.373-119.688-26.597-29.552-65.016-42.851-113.777-42.851zM867.37 381.046c22.165 0 39.896 7.388 53.195 22.165s20.687 38.419 20.687 69.449c0 25.12-5.911 45.807-17.732 60.583s-31.031 22.165-54.672 22.165c-16.253 0-31.031-2.955-44.329-10.344-11.821-7.388-22.165-16.253-28.075-28.075-7.388-11.821-10.344-22.165-10.344-35.464 0-16.253 2.955-31.031 8.865-47.284s14.777-28.075 26.597-38.419c13.299-8.865 28.075-14.777 45.807-14.777z" />
<glyph unicode="&#xe913;" glyph-name="arrow-right" d="M307.2 128l256 256-256 256 51.2 102.4 358.4-358.4-358.4-358.4z" />
<glyph unicode="&#xe914;" glyph-name="arrow-down" d="M256 588.8l256-256 256 256 102.4-51.2-358.4-358.4-358.4 358.4z" />
<glyph unicode="&#xe915;" glyph-name="undo" d="M511.090 880c-132.538-0.238-252.876-52.466-341.72-137.37l-71.428 71.428c-30.24 30.24-81.942 8.824-81.942-33.94v-268.118c0-26.51 21.49-48 48-48h268.118c42.764 0 64.18 51.702 33.942 81.942l-83.5 83.5c61.728 57.798 141.602 89.814 226.46 90.546 184.796 1.596 340.566-147.954 338.968-338.884-1.516-181.122-148.356-333.104-335.988-333.104-82.254 0-159.994 29.356-221.26 83.112-9.486 8.322-23.812 7.816-32.736-1.106l-79.324-79.324c-9.744-9.744-9.262-25.63 0.964-34.866 87.952-79.442 204.504-127.816 332.356-127.816 273.932 0 495.998 222.066 496 495.996 0.002 273.618-223.292 496.494-496.91 496.004z" />
<glyph unicode="&#xe916;" glyph-name="font-solid" d="M362.858 52.573h-49.742l55.071 167.336h286.329l55.071-167.336h-48.444c-18.306 0-33.142-14.837-33.142-33.142v-66.285c0-18.306 14.837-33.142 33.142-33.142h281.716c18.306 0 33.142 14.837 33.142 33.142v66.285c0 18.306-14.837 33.142-33.142 33.142h-55.388l-268.802 773.171c-4.641 13.068-16.899 22.258-31.305 22.258 0 0 0 0-0.001 0h-150.728c0 0 0 0 0 0-14.405 0-26.665-9.191-31.233-22.026l-0.072-0.232-268.796-773.171h-55.388c-18.306 0-33.142-14.837-33.142-33.142v-66.285c0-18.306 14.837-33.142 33.142-33.142h281.716c18.306 0 33.142 14.837 33.142 33.142v66.285c0 18.306-14.837 33.142-33.142 33.142zM496.159 615.542c9.005 31.518 13.693 58.324 15.713 71.761 1.738-13.507 6.088-40.344 16.006-71.891l85.622-256.868h-204.284l86.94 256.999z" />
<glyph unicode="&#xe917;" glyph-name="link-solid" d="M653.224 525.218c119.494-119.618 117.854-311.396 0.72-429.18-0.22-0.24-0.48-0.5-0.72-0.74l-134.4-134.4c-118.54-118.54-311.398-118.524-429.92 0-118.54 118.52-118.54 311.4 0 429.92l74.212 74.212c19.68 19.68 53.572 6.6 54.588-21.212 1.296-35.444 7.652-71.054 19.38-105.442 3.972-11.644 1.134-24.524-7.566-33.224l-26.174-26.174c-56.052-56.052-57.81-147.32-2.31-203.92 56.048-57.158 148.172-57.498 204.65-1.020l134.4 134.38c56.382 56.382 56.146 147.514 0 203.66-7.402 7.388-14.858 13.128-20.682 17.138-8.122 5.632-13.481 14.755-13.892 25.151l-0.002 0.061c-0.792 21.134 6.696 42.912 23.396 59.612l42.108 42.11c11.042 11.042 28.364 12.398 41.168 3.462 15.28-10.741 28.689-22.040 41.044-34.394v0zM935.094 807.102c-118.522 118.524-311.38 118.54-429.92 0l-134.4-134.4c-0.24-0.24-0.5-0.5-0.72-0.74-117.132-117.784-118.774-309.562 0.72-429.18 12.354-12.354 25.763-23.652 40.080-33.749l0.962-0.643c12.804-8.936 30.128-7.578 41.168 3.462l42.108 42.11c16.7 16.7 24.188 38.478 23.396 59.612-0.413 10.457-5.772 19.58-13.788 25.142l-0.106 0.070c-5.824 4.010-13.28 9.75-20.682 17.138-56.146 56.146-56.382 147.278 0 203.66l134.4 134.38c56.478 56.478 148.6 56.138 204.65-1.020 55.5-56.6 53.744-147.868-2.31-203.92l-26.174-26.174c-8.7-8.7-11.538-21.58-7.566-33.224 11.728-34.388 18.084-69.998 19.38-105.442 1.018-27.812 34.908-40.892 54.588-21.212l74.212 74.212c118.542 118.518 118.542 311.398 0.002 429.918z" />
<glyph unicode="&#xe918;" glyph-name="outdent" d="M56.139 734.036v81.404c0 17.984 14.576 32.561 32.561 32.561h846.596c17.984 0 32.561-14.576 32.561-32.561v-81.404c0-17.984-14.576-32.561-32.561-32.561h-846.596c-17.984 0-32.561 14.576-32.561 32.561zM479.439 440.982h455.861c17.984 0 32.561 14.576 32.561 32.561v81.404c0 17.984-14.576 32.561-32.561 32.561h-455.861c-17.984 0-32.561-14.576-32.561-32.561v-81.404c0-17.984 14.576-32.561 32.561-32.561zM88.701-80h846.596c17.984 0 32.561 14.576 32.561 32.561v81.404c0 17.984-14.576 32.561-32.561 32.561h-846.596c-17.984 0-32.561-14.576-32.561-32.561v-81.404c0-17.984 14.576-32.561 32.561-32.561zM479.439 180.492h455.861c17.984 0 32.561 14.576 32.561 32.561v81.404c0 17.984-14.576 32.561-32.561 32.561h-455.861c-17.984 0-32.561-14.576-32.561-32.561v-81.404c0-17.984 14.576-32.561 32.561-32.561zM65.678 360.977l195.368-195.335c20.447-20.456 55.583-5.958 55.583 23.023v390.688c0 29.16-35.257 43.356-55.583 23.023l-195.368-195.353c-12.717-12.717-12.717-33.332 0-46.045z" />
<glyph unicode="&#xe919;" glyph-name="indent" d="M56.14 734.036v81.404c0 17.984 14.576 32.561 32.561 32.561h846.595c17.984 0 32.561-14.576 32.561-32.561v-81.404c0-17.984-14.576-32.561-32.561-32.561h-846.595c-17.984 0-32.561 14.576-32.561 32.561zM414.315 440.982h520.981c17.984 0 32.561 14.576 32.561 32.561v81.404c0 17.984-14.576 32.561-32.561 32.561h-520.981c-17.984 0-32.561-14.576-32.561-32.561v-81.404c0-17.984 14.576-32.561 32.561-32.561zM88.701-79.999h846.595c17.984 0 32.561 14.576 32.561 32.561v81.404c0 17.984-14.576 32.561-32.561 32.561h-846.595c-17.984 0-32.561-14.576-32.561-32.561v-81.404c0-17.984 14.576-32.561 32.561-32.561zM414.315 180.493h520.981c17.984 0 32.561 14.576 32.561 32.561v81.404c0 17.984-14.576 32.561-32.561 32.561h-520.981c-17.984 0-32.561-14.576-32.561-32.561v-81.404c0-17.984 14.576-32.561 32.561-32.561zM307.094 407.023l-195.368 195.335c-20.447 20.456-55.583 5.958-55.583-23.023v-390.686c0-29.159 35.257-43.356 55.583-23.023l195.368 195.353c12.716 12.714 12.716 33.329 0 46.043z" />
<glyph unicode="&#xe91a;" glyph-name="list-ol-solid" d="M6.526 616.946c0 14.954 7.834 23.144 23.146 23.144h30.262v79.754c0 10.326 1.068 21.006 1.068 21.006h-0.712s-3.558-5.34-5.696-7.476c-8.902-8.546-21.008-8.902-31.332 2.136l-11.036 12.462c-10.684 10.682-9.968 22.432 1.068 32.758l43.44 39.876c8.896 8.19 16.73 11.394 28.836 11.394h24.21c15.312 0 23.498-7.832 23.498-23.144v-168.768h30.976c15.31 0 23.144-8.188 23.144-23.144v-17.802c0-14.954-7.834-23.144-23.144-23.144h-134.582c-15.312 0-23.146 8.19-23.146 23.144v17.804zM4.422 286.818c0 94.556 101.91 112.766 101.91 138.33 0 14.36-11.908 17.51-18.56 17.51-6.306 0-12.958-2.102-18.91-7.704-10.158-9.806-21.014-14.008-32.222-4.902l-17.158 13.658c-11.558 9.106-14.36 19.61-5.606 30.818 13.308 17.51 38.174 37.472 80.898 37.472 38.874 0 88.952-21.012 88.952-79.146 0-76.694-93.506-92.804-97.358-113.818h78.098c15.058 0 23.114-8.054 23.114-22.764v-17.51c0-14.708-8.056-22.764-23.114-22.764h-135.88c-14.010 0-24.166 8.056-24.166 22.764v8.056zM11.308-13.22l11.206 18.56c7.706 13.308 18.21 14.008 31.168 6.304 9.806-4.202 19.26-6.304 28.718-6.304 20.31 0 28.716 7.004 28.716 16.46 0 13.308-11.208 18.212-31.868 18.212h-9.456c-11.908 0-18.56 4.202-24.516 15.76l-2.1 3.852c-4.902 9.456-2.452 19.612 5.602 29.768l11.208 14.008c13.658 16.81 24.514 26.966 24.514 26.966v0.7s-8.406-2.102-25.216-2.102h-25.914c-15.060 0-22.766 8.056-22.766 22.764v17.51c0 15.060 7.706 22.764 22.766 22.764h116.968c15.058 0 22.764-8.054 22.764-22.764v-6.654c0-11.556-2.802-19.612-10.158-28.366l-35.018-40.274c39.222-10.156 57.432-40.974 57.432-69.69 0-42.726-28.716-88.252-97.006-88.252-33.272 0-56.384 9.456-71.792 18.91-11.558 8.404-12.608 19.61-5.252 31.868zM288 632h704c17.674 0 32 14.326 32 32v80c0 17.674-14.326 32-32 32h-704c-17.674 0-32-14.326-32-32v-80c0-17.674 14.326-32 32-32zM288 312h704c17.674 0 32 14.326 32 32v80c0 17.674-14.326 32-32 32h-704c-17.674 0-32-14.326-32-32v-80c0-17.674 14.326-32 32-32zM288-8h704c17.674 0 32 14.326 32 32v80c0 17.674-14.326 32-32 32h-704c-17.674 0-32-14.326-32-32v-80c0-17.674 14.326-32 32-32z" />
<glyph unicode="&#xe91b;" glyph-name="list-ul-solid" d="M192 704c0-53.020-42.98-96-96-96s-96 42.98-96 96 42.98 96 96 96 96-42.98 96-96zM96 480c-53.020 0-96-42.98-96-96s42.98-96 96-96 96 42.98 96 96-42.98 96-96 96zM96 160c-53.020 0-96-42.98-96-96s42.98-96 96-96 96 42.98 96 96-42.98 96-96 96zM288 632h704c17.674 0 32 14.326 32 32v80c0 17.674-14.326 32-32 32h-704c-17.674 0-32-14.326-32-32v-80c0-17.674 14.326-32 32-32zM288 312h704c17.674 0 32 14.326 32 32v80c0 17.674-14.326 32-32 32h-704c-17.674 0-32-14.326-32-32v-80c0-17.674 14.326-32 32-32zM288-8h704c17.674 0 32 14.326 32 32v80c0 17.674-14.326 32-32 32h-704c-17.674 0-32-14.326-32-32v-80c0-17.674 14.326-32 32-32z" />
<glyph unicode="&#xe91c;" glyph-name="quote" d="M928 832h-256c-53 0-96-43-96-96v-256c0-53 43-96 96-96h160v-128c0-70.6-57.4-128-128-128h-16c-26.6 0-48-21.4-48-48v-96c0-26.6 21.4-48 48-48h16c176.8 0 320 143.2 320 320v480c0 53-43 96-96 96zM352 832h-256c-53 0-96-43-96-96v-256c0-53 43-96 96-96h160v-128c0-70.6-57.4-128-128-128h-16c-26.6 0-48-21.4-48-48v-96c0-26.6 21.4-48 48-48h16c176.8 0 320 143.2 320 320v480c0 53-43 96-96 96z" />
<glyph unicode="&#xe91d;" glyph-name="strikethrough" d="M992 320h-960c-17.674 0-32 14.326-32 32v64c0 17.674 14.326 32 32 32h960c17.674 0 32-14.326 32-32v-64c0-17.674-14.326-32-32-32zM562.668 288c54.516-25.874 93.048-57.366 93.048-112.486 0-66.216-57.954-107.352-151.242-107.352-64.65 0-153.748 24.16-153.748 88.542v3.296c0 17.674-14.328 32-32 32h-91.226c-17.672 0-32-14.326-32-32v-38.408c0-133.69 155.434-203.64 308.974-203.64 177.156 0 324.026 90.876 324.026 268.848 0 39.63-7.236 72.834-20.286 101.2h-245.546zM500.764 480c-64.844 27.010-113.672 57.892-113.672 119.366 0 67.84 61.802 94.812 129.924 94.812 85.294 0 129.924-33.186 129.924-65.97v-4.208c0-17.674 14.328-32 32-32h91.226c17.672 0 32 14.326 32 32v60.636c0 104.876-143.45 159.75-285.15 159.75-170.406 0-301.452-81.944-301.452-251.292 0-45.42 9.33-82.352 25.554-113.094h259.646z" />
<glyph unicode="&#xe91e;" glyph-name="keyboard" horiz-adv-x="1152" d="M1056 0h-960c-53.020 0-96 42.98-96 96v576c0 53.020 42.98 96 96 96h960c53.020 0 96-42.98 96-96v-576c0-53.020-42.98-96-96-96zM256 536v80c0 13.254-10.746 24-24 24h-80c-13.254 0-24-10.746-24-24v-80c0-13.254 10.746-24 24-24h80c13.254 0 24 10.746 24 24zM448 536v80c0 13.254-10.746 24-24 24h-80c-13.254 0-24-10.746-24-24v-80c0-13.254 10.746-24 24-24h80c13.254 0 24 10.746 24 24zM640 536v80c0 13.254-10.746 24-24 24h-80c-13.254 0-24-10.746-24-24v-80c0-13.254 10.746-24 24-24h80c13.254 0 24 10.746 24 24zM832 536v80c0 13.254-10.746 24-24 24h-80c-13.254 0-24-10.746-24-24v-80c0-13.254 10.746-24 24-24h80c13.254 0 24 10.746 24 24zM1024 536v80c0 13.254-10.746 24-24 24h-80c-13.254 0-24-10.746-24-24v-80c0-13.254 10.746-24 24-24h80c13.254 0 24 10.746 24 24zM352 344v80c0 13.254-10.746 24-24 24h-80c-13.254 0-24-10.746-24-24v-80c0-13.254 10.746-24 24-24h80c13.254 0 24 10.746 24 24zM544 344v80c0 13.254-10.746 24-24 24h-80c-13.254 0-24-10.746-24-24v-80c0-13.254 10.746-24 24-24h80c13.254 0 24 10.746 24 24zM736 344v80c0 13.254-10.746 24-24 24h-80c-13.254 0-24-10.746-24-24v-80c0-13.254 10.746-24 24-24h80c13.254 0 24 10.746 24 24zM928 344v80c0 13.254-10.746 24-24 24h-80c-13.254 0-24-10.746-24-24v-80c0-13.254 10.746-24 24-24h80c13.254 0 24 10.746 24 24zM256 152v80c0 13.254-10.746 24-24 24h-80c-13.254 0-24-10.746-24-24v-80c0-13.254 10.746-24 24-24h80c13.254 0 24 10.746 24 24zM832 152v80c0 13.254-10.746 24-24 24h-464c-13.254 0-24-10.746-24-24v-80c0-13.254 10.746-24 24-24h464c13.254 0 24 10.746 24 24zM1024 152v80c0 13.254-10.746 24-24 24h-80c-13.254 0-24-10.746-24-24v-80c0-13.254 10.746-24 24-24h80c13.254 0 24 10.746 24 24z" />
<glyph unicode="&#xe91f;" glyph-name="file-alt-solid" horiz-adv-x="768" d="M448 624v272h-400c-26.6 0-48-21.4-48-48v-928c0-26.6 21.4-48 48-48h672c26.6 0 48 21.4 48 48v656h-272c-26.4 0-48 21.6-48 48zM576 152c0-13.2-10.8-24-24-24h-336c-13.2 0-24 10.8-24 24v16c0 13.2 10.8 24 24 24h336c13.2 0 24-10.8 24-24v-16zM576 280c0-13.2-10.8-24-24-24h-336c-13.2 0-24 10.8-24 24v16c0 13.2 10.8 24 24 24h336c13.2 0 24-10.8 24-24v-16zM576 424v-16c0-13.2-10.8-24-24-24h-336c-13.2 0-24 10.8-24 24v16c0 13.2 10.8 24 24 24h336c13.2 0 24-10.8 24-24zM768 652.2v-12.2h-256v256h12.2c12.8 0 25-5 34-14l195.8-196c9-9 14-21.2 14-33.8z" />
<glyph unicode="&#xe920;" glyph-name="play-circle" d="M512 880c-274 0-496-222-496-496s222-496 496-496 496 222 496 496-222 496-496 496zM743.4 336l-352-202c-31.6-17.6-71.4 5-71.4 42v416c0 36.8 39.6 59.6 71.4 42l352-214c32.8-18.4 32.8-65.8 0-84z" />
<glyph unicode="&#xe921;" glyph-name="question-circle" d="M1008 384c0-273.994-222.086-496-496-496s-496 222.006-496 496c0 273.834 222.086 496 496 496s496-222.166 496-496zM525.31 716c-108.994 0-178.51-45.914-233.098-127.516-7.072-10.572-4.706-24.83 5.43-32.516l69.398-52.62c10.41-7.894 25.242-6.016 33.33 4.244 35.728 45.316 60.226 71.594 114.606 71.594 40.858 0 91.396-26.296 91.396-65.916 0-29.952-24.726-45.334-65.068-67.952-47.048-26.374-109.304-59.2-109.304-141.318v-8c0-13.254 10.746-24 24-24h112c13.254 0 24 10.746 24 24v2.666c0 56.924 166.372 59.294 166.372 213.334 0 116.004-120.33 204-233.062 204zM512 220c-50.73 0-92-41.27-92-92 0-50.728 41.27-92 92-92s92 41.272 92 92c0 50.73-41.27 92-92 92z" />
<glyph unicode="&#xe922;" glyph-name="arrow-up-alt" d="M128 0c0 0 768 0 768 0s0 128 0 128c0 38.4 25.6 64 64 64s64-25.6 64-64v-128c0-70.4-57.6-128-128-128h-768c-70.4 0-128 57.6-128 128v128c0 38.4 25.6 64 64 64s64-25.6 64-64v-128zM576 691.2l147.2-160c25.6-25.6 64-25.6 89.6 0s25.6 64 0 89.6l-230.4 249.6c-19.2 12.8-44.8 25.6-70.4 25.6s-51.2-12.8-70.4-25.6l-230.4-249.6c-25.6-25.6-25.6-64 0-89.6s64-25.6 89.6 0l147.2 160v-435.2c0-38.4 25.6-64 64-64s64 25.6 64 64v435.2z" />
<glyph unicode="&#xe923;" glyph-name="settings" d="M960 320h-64c-35.328 0-64 28.672-64 64s28.672 64 64 64h64c35.328 0 64-28.672 64-64s-28.672-64-64-64zM960 640h-465.92c-22.528-39.552-64.64-64-110.080-64-70.72 0-128 57.28-128 128s57.28 128 128 128c45.44 0 87.552-24.448 110.080-64h465.92c35.328 0 64-28.672 64-64s-28.672-64-64-64zM128 640h-64c-35.328 0-64 28.672-64 64s28.672 64 64 64h64c35.328 0 64-28.672 64-64s-28.672-64-64-64zM64 448h465.92c22.528 39.552 64.64 64 110.080 64 70.72 0 128-57.28 128-128s-57.28-128-128-128c-45.44 0-87.552 24.448-110.080 64h-465.92c-35.328 0-64 28.672-64 64s28.672 64 64 64zM64 128h64c35.328 0 64-28.672 64-64s-28.672-64-64-64h-64c-35.328 0-64 28.672-64 64s28.672 64 64 64zM494.080 128h465.92c35.328 0 64-28.672 64-64s-28.672-64-64-64h-465.92c-22.528-39.552-64.64-64-110.080-64-70.72 0-128 57.28-128 128s57.28 128 128 128c45.44 0 87.552-24.448 110.080-64z" />
<glyph unicode="&#xe924;" glyph-name="arrow-down-alt" d="M128 768c0 0 768 0 768 0s0-128 0-128c0-38.4 25.6-64 64-64s64 25.6 64 64v128c0 70.4-57.6 128-128 128h-768c-70.4 0-128-57.6-128-128v-128c0-38.4 25.6-64 64-64s64 25.6 64 64v128zM576 76.8l147.2 160c25.6 25.6 64 25.6 89.6 0s25.6-64 0-89.6l-230.4-249.6c-19.2-12.8-44.8-25.6-70.4-25.6s-51.2 12.8-70.4 25.6l-230.4 249.6c-25.6 25.6-25.6 64 0 89.6s64 25.6 89.6 0l147.2-160v435.2c0 38.4 25.6 64 64 64s64-25.6 64-64v-435.2z" />
<glyph unicode="&#xe925;" glyph-name="mobile" horiz-adv-x="640" d="M544 896h-448c-53 0-96-43-96-96v-832c0-53 43-96 96-96h448c53 0 96 43 96 96v832c0 53-43 96-96 96zM320-64c-35.4 0-64 28.6-64 64s28.6 64 64 64 64-28.6 64-64-28.6-64-64-64zM544 152c0-13.2-10.8-24-24-24h-400c-13.2 0-24 10.8-24 24v624c0 13.2 10.8 24 24 24h400c13.2 0 24-10.8 24-24v-624z" />
<glyph unicode="&#xe926;" glyph-name="tablet" horiz-adv-x="896" d="M800 896h-704c-53 0-96-43-96-96v-832c0-53 43-96 96-96h704c53 0 96 43 96 96v832c0 53-43 96-96 96zM448-64c-35.4 0-64 28.6-64 64s28.6 64 64 64 64-28.6 64-64-28.6-64-64-64zM800 152c0-13.2-10.8-24-24-24h-656c-13.2 0-24 10.8-24 24v624c0 13.2 10.8 24 24 24h656c13.2 0 24-10.8 24-24v-624z" />
<glyph unicode="&#xe927;" glyph-name="desktop" horiz-adv-x="1152" d="M1056 896h-960c-53 0-96-43-96-96v-640c0-53 43-96 96-96h384l-32-96h-144c-26.6 0-48-21.4-48-48s21.4-48 48-48h544c26.6 0 48 21.4 48 48s-21.4 48-48 48h-144l-32 96h384c53 0 96 43 96 96v640c0 53-43 96-96 96zM1024 192h-896v576h896v-576z" />
<glyph unicode="&#xe928;" glyph-name="eye-slash" horiz-adv-x="1152" d="M573.386 112.032l65.158-93.084c-18.742-1.873-40.514-2.943-62.536-2.948h-0.008c-239.62 0-449.938 127.898-562.708 319.262-8.353 13.945-13.293 30.765-13.293 48.739s4.94 34.794 13.536 49.177l-0.243-0.438c48.046 81.532 113.826 151.55 192.048 205.074l114.154-163.078c-10.022-28.376-15.494-58.91-15.494-90.736 0-149.472 120.27-270.564 269.386-271.968zM1138.708 335.262c-63.334-107.474-157.494-194.92-270.35-250.95l0.022-0.030 82.94-118.4c15.2-21.72 9.92-51.64-11.8-66.84l-26.22-18.36c-21.72-15.2-51.64-9.92-66.84 11.8l-645.78 909.638c-15.2 21.72-9.92 51.64 11.8 66.84l26.22 18.36c21.72 15.2 51.64 9.92 66.84-11.8l102.076-145.234c53.744 14.162 110.194 21.714 168.384 21.714 239.62 0 449.938-127.898 562.708-319.262 8.352-13.945 13.291-30.765 13.291-48.738s-4.939-34.793-13.534-49.176l0.243 0.438zM848 384c0 150.348-121.676 272-272 272-35.878 0-70.112-6.946-101.458-19.544l38.598-54.116c51.738 16.342 110.088 12.326 160.8-14.82h-0.060c-47.3 0-85.64-38.34-85.64-85.64 0-47.252 38.294-85.64 85.64-85.64 47.3 0 85.64 38.34 85.64 85.64v0.060c36.924-68.98 32.624-155.828-16.5-221.9v-0.020l38.628-54.122c41.344 47.702 66.352 109.954 66.352 178.102zM524.028 182.546l-155.060 221.514c-10.028-104.774 58.628-196.708 155.060-221.514z" />
<glyph unicode="&#xe929;" glyph-name="eye" horiz-adv-x="1152" d="M1138.708 432.738c-112.77 191.364-323.088 319.262-562.708 319.262-239.72 0-449.992-127.988-562.708-319.262-8.353-13.945-13.293-30.765-13.293-48.739s4.94-34.794 13.536-49.177l-0.243 0.438c112.77-191.362 323.088-319.26 562.708-319.26 239.72 0 449.992 127.988 562.708 319.262 8.353 13.945 13.293 30.764 13.293 48.738s-4.94 34.794-13.536 49.176l0.243-0.438zM576 112c-150.324 0-272 121.654-272 272 0 150.324 121.652 272 272 272 150.324 0 272-121.652 272-272 0-150.324-121.652-272-272-272zM784 384c0-114.876-93.124-208-208-208s-208 93.124-208 208c0 35.416 8.862 68.758 24.472 97.946l-0.002-0.064c0-47.302 38.346-85.646 85.648-85.646s85.648 38.346 85.648 85.646c0 47.302-38.346 85.648-85.648 85.648l-0.064-0.002c29.188 15.61 62.53 24.472 97.946 24.472 114.876 0 208-93.124 208-208z" />
<glyph unicode="&#xe92a;" glyph-name="draft" d="M768-128h-576c-34.048 0-66.56 13.568-90.688 37.632-24 24.128-37.44 56.768-37.312 90.88v766.976c0 70.912 57.216 128.32 128 128.512h416c37.312-1.152 72.96-15.872 100.032-41.6l146.432-146.368c25.6-27.136 40.32-62.72 41.6-100.032v-608c0-70.72-57.28-128-128-128zM192 0h576v512h-128c-70.72 0-128 57.28-128 128v128c-122.88 0-320 0-320-0.384v-767.616zM640 741.504v-101.504h101.568l-101.568 101.504z" />
<glyph unicode="&#xe92b;" glyph-name="published" d="M640 640v251.328c25.6-6.144 48.96-18.88 68.096-36.864l146.432-146.368c17.92-19.2 30.592-42.56 36.8-68.032h-251.328zM512 640c0-70.72 57.28-128 128-128h256v-512c0-70.72-57.28-128-128-128h-576c-34.048 0-66.56 13.568-90.688 37.632-24 24.128-37.44 56.768-37.312 90.88v766.976c0 70.912 57.216 128.32 128 128.512h320v-256z" />
<glyph unicode="&#xe92c;" glyph-name="external-link-alt" horiz-adv-x="1152" d="M1152 848v-255.968c0-42.922-51.92-63.96-81.942-33.942l-71.414 71.418-487.046-487.046c-18.746-18.746-49.136-18.746-67.882 0l-45.254 45.254c-18.746 18.746-18.746 49.138 0 67.882l487.050 487.050-71.406 71.41c-30.142 30.142-8.794 81.942 33.942 81.942h255.952c26.51 0 48-21.49 48-48zM814.058 354.412l-32-32c-8.686-8.686-14.058-20.685-14.058-33.939 0-0.001 0-0.002 0-0.003v0-288.47h-640v640h528c13.254 0.001 25.254 5.373 33.94 14.058l32 32c30.238 30.24 8.822 81.942-33.94 81.942h-592c-53.020 0-96-42.98-96-96v-704c0-53.020 42.98-96 96-96h704c53.020 0 96 42.98 96 96v352.472c0 42.764-51.704 64.18-81.942 33.94z" />
<glyph unicode="&#xe92d;" glyph-name="active-filters" d="M725.333 768v85.333l-725.333-0.003v-85.333h48l208-346.668v-336l107.184 0.004c-14.151 40.034-21.85 83.119-21.85 128 0 148.659 84.475 277.589 208.043 341.404l127.957 213.263h48zM725.333-85.333c-164.949 0-298.667 133.717-298.667 298.667s133.717 298.667 298.667 298.667c164.949 0 298.667-133.717 298.667-298.667s-133.717-298.667-298.667-298.667zM702.31 92.634l186.598 183.049c9.455 9.301 9.455 23.932 0 33.237l-27.209 25.527c-9.984 9.182-25.958 9.182-35.942 0l-141.419-140.659-58.931 54.148c-4.655 4.659-11.162 7.3-17.967 7.3-6.81 0-13.312-2.641-17.971-7.3l-27.209-25.527c-4.86-4.523-7.595-10.679-7.595-17.101s2.735-12.578 7.595-17.101l104.107-95.573c4.659-4.659 11.166-7.3 17.971-7.3s13.312 2.641 17.971 7.3z" />
<glyph unicode="&#xe92e;" glyph-name="preferences" d="M800 448h-576c-123.712 0-224 100.288-224 224s100.288 224 224 224h576c123.712 0 224-100.288 224-224s-100.288-224-224-224zM800 768c-52.992 0-96-43.008-96-96s43.008-96 96-96 96 43.008 96 96-43.008 96-96 96zM224 320h576c123.712 0 224-100.288 224-224s-100.288-224-224-224h-576c-123.712 0-224 100.288-224 224s100.288 224 224 224zM224 0c52.992 0 96 43.008 96 96s-43.008 96-96 96-96-43.008-96-96 43.008-96 96-96z" />
<glyph unicode="&#xe92f;" glyph-name="arrow-left" d="M716.8 640l-256-256 256-256-51.2-102.4-358.4 358.4 358.4 358.4z" />
<glyph unicode="&#xe930;" glyph-name="arrow-up" d="M768 179.2l-256 256-256-256-102.4 51.2 358.4 358.4 358.4-358.4z" />
<glyph unicode="&#xe931;" glyph-name="page-settings" d="M896 896c70.4 0 128-57.6 128-128v-768c0-32-12.8-64-38.4-89.6s-57.6-38.4-89.6-38.4h-768c-70.4 0-128 57.6-128 128v768c0 32 12.8 64 38.4 89.6s57.6 38.4 89.6 38.4h768zM128 704v-704h768v704h-768zM384 192h-128v128h128v-128zM768 384h-128v128h128v-128zM512 512h-192c-38.4 0-64-25.6-64-64 0-32 25.6-64 64-64h192c32 0 64 25.6 64 64s-32 64-64 64zM704 320h-192c-32 0-64-25.6-64-64 0-32 25.6-64 64-64h192c32 0 64 25.6 64 64s-32 64-64 64z" />
<glyph unicode="&#xe932;" glyph-name="page-options" d="M896 896c70.4 0 128-57.6 128-128v-768c0-32-12.8-64-38.4-89.6s-57.6-38.4-89.6-38.4h-768c-70.4 0-128 57.6-128 128v768c0 32 12.8 64 38.4 89.6s57.6 38.4 89.6 38.4h768zM128 704v-704h768v704h-768zM384 192h-128v128h128v-128zM704 320h-192c-32 0-64-25.6-64-64 0-32 25.6-64 64-64h192c32 0 64 25.6 64 64s-32 64-64 64zM256 512h128v-128h-128zM704 512h-192c-38.4 0-64-25.6-64-64 0-32 25.6-64 64-64h192c32 0 64 25.6 64 64s-32 64-64 64z" />
<glyph unicode="&#xe933;" glyph-name="element-options" d="M896-128h-192c-70.72 0-128 57.28-128 128v192c0 70.72 57.28 128 128 128h192c70.72 0 128-57.28 128-128v-192c0-70.72-57.28-128-128-128zM896 192h-192v-192h192v192zM896 448h-192c-70.72 0-128 57.28-128 128v192c0 70.72 57.28 128 128 128h192c70.72 0 128-57.28 128-128v-192c0-70.72-57.28-128-128-128zM896 768h-192v-192h192v192zM320-128h-192c-70.72 0-128 57.28-128 128v192c0 70.72 57.28 128 128 128h192c70.72 0 128-57.28 128-128v-192c0-70.72-57.28-128-128-128zM320 192h-192v-192h192v192zM320 448h-192c-70.72 0-128 57.28-128 128v192c0 70.72 57.28 128 128 128h192c70.72 0 128-57.28 128-128v-192c0-70.72-57.28-128-128-128zM320 768h-192v-192h192v192z" />
<glyph unicode="&#xe934;" glyph-name="container" d="M927.808 831.936h-831.808c-53.056 0-96-42.816-96-95.872v-704c0-53.056 43.008-96 96-96h832c53.056 0 96 43.008 96 96v704.064c-0.128 52.992-43.136 95.808-96.192 95.808zM127.936 64.064v511.936h767.872v-511.936h-767.872z" />
<glyph unicode="&#xe935;" glyph-name="column" d="M928 832h-832c-53.020 0-96-42.98-96-96v-704c0-53.020 42.98-96 96-96h832c53.020 0 96 42.98 96 96v704c0 53.020-42.98 96-96 96zM448 64h-320v512h320v-512zM896 64h-320v512h320v-512z" />
<glyph unicode="&#xe936;" glyph-name="toggle-on" horiz-adv-x="1152" d="M1152 384c0-212.078-171.922-384-384-384h-384c-212.078 0-384 171.922-384 384s171.922 384 384 384h384c212.078 0 384-171.922 384-384zM768 640c-141.482 0-256-114.498-256-256 0-141.482 114.498-256 256-256 141.482 0 256 114.498 256 256 0 141.482-114.498 256-256 256z" />
<glyph unicode="&#xe937;" glyph-name="toggle-off" horiz-adv-x="1152" d="M768 768h-384c-212.078 0-384-171.922-384-384s171.922-384 384-384h384c212.078 0 384 171.922 384 384s-171.922 384-384 384zM128 384c0 141.482 114.498 256 256 256 141.482 0 256-114.498 256-256 0-141.482-114.498-256-256-256-141.482 0-256 114.498-256 256zM768 128h-97.81c130.434 145.716 130.472 366.24 0 512h97.81c141.482 0 256-114.498 256-256 0-141.48-114.498-256-256-256z" />
<glyph unicode="&#xe938;" glyph-name="bars" horiz-adv-x="896" d="M32 632h832c17.674 0 32 14.326 32 32v80c0 17.674-14.326 32-32 32h-832c-17.674 0-32-14.326-32-32v-80c0-17.674 14.326-32 32-32zM32 312h832c17.674 0 32 14.326 32 32v80c0 17.674-14.326 32-32 32h-832c-17.674 0-32-14.326-32-32v-80c0-17.674 14.326-32 32-32zM32-8h832c17.674 0 32 14.326 32 32v80c0 17.674-14.326 32-32 32h-832c-17.674 0-32-14.326-32-32v-80c0-17.674 14.326-32 32-32z" />
<glyph unicode="&#xe939;" glyph-name="eraser-solid" d="M995.882 348.118c37.49 37.49 37.49 98.274 0 135.764l-320 320c-37.49 37.49-98.272 37.492-135.766 0l-512-512c-37.49-37.49-37.49-98.274 0-135.764l192-192c17.373-17.372 41.374-28.118 67.884-28.118h712c13.254 0 24 10.746 24 24v80c0 13.254-10.746 24-24 24h-288.234l284.116 284.118zM390.628 473.372l274.746-274.746-134.628-134.626h-229.49l-160 160 249.372 249.372z" />
<glyph unicode="&#xe93a;" glyph-name="envelope" d="M928 768h-832c-53.020 0-96-42.98-96-96v-576c0-53.020 42.98-96 96-96h832c53.020 0 96 42.98 96 96v576c0 53.020-42.98 96-96 96zM928 672v-81.61c-44.844-36.518-116.336-93.302-269.174-212.98-33.682-26.494-100.402-90.144-146.826-89.402-46.416-0.75-113.158 62.918-146.826 89.402-152.814 119.66-224.324 176.456-269.174 212.98v81.61h832zM96 96v371.204c45.828-36.502 110.818-87.724 209.876-165.292 43.714-34.41 120.268-110.372 206.124-109.91 85.434-0.462 161.018 74.398 206.106 109.894 99.056 77.566 164.064 128.802 209.894 165.306v-371.202h-832z" />
<glyph unicode="&#xe93b;" glyph-name="cart" horiz-adv-x="1152" d="M1056.24 293.362l94.546 416c6.826 30.036-16.004 58.638-46.806 58.638h-785.564l-18.332 89.62c-4.568 22.338-24.224 38.38-47.026 38.38h-205.058c-26.51 0-48-21.49-48-48v-32c0-26.51 21.49-48 48-48h139.766l140.496-686.87c-33.612-19.33-56.262-55.574-56.262-97.13 0-61.856 50.144-112 112-112s112 50.144 112 112c0 31.348-12.894 59.67-33.648 80h419.294c-20.752-20.33-33.646-48.652-33.646-80 0-61.856 50.144-112 112-112s112 50.144 112 112c0 44.344-25.776 82.664-63.158 100.81l11.034 48.552c6.826 30.036-16.004 58.638-46.806 58.638h-536.836l-13.090 64h586.29c22.412 0 41.84 15.508 46.806 37.362z" />
<glyph unicode="&#xe93c;" glyph-name="exclamation" d="M621.714 146.286v-128c0-20-16.571-36.571-36.571-36.571h-146.286c-20 0-36.571 16.571-36.571 36.571v128c0 20 16.571 36.571 36.571 36.571h146.286c20 0 36.571-16.571 36.571-36.571zM638.857 749.715l-16-438.857c-0.571-20-17.714-36.571-37.714-36.571h-146.286c-20 0-37.143 16.571-37.714 36.571l-16 438.857c-0.571 20 15.429 36.571 35.429 36.571h182.857c20 0 36-16.571 35.429-36.571z" />
<glyph unicode="&#xe93d;" glyph-name="sidebar-icon" d="M915.2-128h-787.2c-70.4 0-128 57.6-128 128v768c0 70.4 57.6 128 128 128h787.2c70.4 0 128-57.6 128-128v-768c0-70.4-57.6-128-128-128zM288 768v0c-51.2 0-96-44.8-96-96v-576c0-51.2 44.8-96 96-96v0c51.2 0 96 44.8 96 96v576c0 51.2-44.8 96-96 96z" />
<glyph unicode="&#xe93e;" glyph-name="add-columns" horiz-adv-x="1170" d="M109.714 896h950.857c60.594 0 109.714-49.12 109.714-109.714v-404.571h-146.286v221.714h-365.714v-731.429h-548.571c-60.594 0-109.714 49.12-109.714 109.714v804.571c0 60.594 49.12 109.714 109.714 109.714zM146.286 18.286h365.714v585.143h-365.714v-585.143zM1024 310.857h-146.286v-146.286h-146.286v-146.286h146.286v-146.286h146.286v146.286h146.286v146.286h-146.286v146.286z" />
<glyph unicode="&#xe93f;" glyph-name="add-container" horiz-adv-x="1170" d="M109.714 896h950.857c60.594 0 109.714-49.12 109.714-109.714v-404.571h-146.286v221.714h-877.714v-585.143h512v-146.286h-548.571c-60.594 0-109.714 49.12-109.714 109.714v804.571c0 60.594 49.12 109.714 109.714 109.714zM1024 310.857h-146.286v-146.286h-146.286v-146.286h146.286v-146.286h146.286v146.286h146.286v146.286h-146.286v146.286z" />
<glyph unicode="&#xe940;" glyph-name="video" d="M0 768v-768h1024v768h-1024zM192 64h-128v128h128v-128zM192 320h-128v128h128v-128zM192 576h-128v128h128v-128zM768 64h-512v640h512v-640zM960 64h-128v128h128v-128zM960 320h-128v128h128v-128zM960 576h-128v128h128v-128zM384 576v-384l256 192z" />
<glyph unicode="&#xe941;" glyph-name="dynamic-data" horiz-adv-x="896" d="M896 749.714v-91.428c0-80.572-200.666-146.286-448-146.286s-448 65.714-448 146.286v91.428c0 80.572 200.666 146.286 448 146.286s448-65.714 448-146.286zM896 544v-205.714c0-80.572-200.666-146.286-448-146.286s-448 65.714-448 146.286v205.714c96.25-66.286 272.416-97.144 448-97.144s351.748 30.858 448 97.144zM896 224v-205.714c0-80.572-200.666-146.286-448-146.286s-448 65.714-448 146.286v205.714c96.25-66.286 272.416-97.144 448-97.144s351.748 30.858 448 97.144z" />
<glyph unicode="&#xe942;" glyph-name="gradient-fill" horiz-adv-x="952" d="M844.8 691.7h-738.1c-57.9 0-105.2-47.3-105.2-105.2v-403.8c0-57.9 47.3-105.2 105.2-105.2h738.1c57.9 0 105.2 47.3 105.2 105.2v403.8c0 57.8-47.3 105.2-105.2 105.2zM80.9 184.9v370.6c0 28.9 23.7 52.6 52.6 52.6h717.5l-770.1-423.2z" />
<glyph unicode="&#xe943;" glyph-name="fill-drip-solid" horiz-adv-x="1152" d="M1024 256s-128-185.3-128-256c0-70.7 57.32-128 128-128s128 57.3 128 128-128 256-128 256zM1005.26 461.88l-415.38 415.38c-12.5 12.5-28.88 18.74-45.26 18.74s-32.76-6.24-45.24-18.74l-163.16-163.16-172.36 172.38c-12.5 12.5-32.76 12.5-45.24 0l-45.24-45.24c-12.48-12.5-12.48-32.76 0-45.24l172.38-172.36-189.52-189.52c-74.98-74.96-74.98-196.52 0-271.5l234.38-234.38c37.48-37.48 86.62-56.24 135.74-56.24 49.14 0 98.26 18.74 135.74 56.24l443.14 443.14c25 25 25 65.5 0.020 90.5zM772.82 319.94h-640.96c2.72 7.68 7.14 15.96 14.86 23.66l189.52 189.52 117.2-117.2c24.98-24.98 65.5-24.98 90.48 0s24.98 65.5 0 90.48l-117.2 117.2 117.9 117.9 324.88-324.88-96.68-96.68z" />
<glyph unicode="&#xe944;" glyph-name="audio" d="M911.814 891.76h-792.294c-63.943 0-115.853-51.91-115.853-115.853v-785.418c0-63.943 51.91-115.853 115.853-115.853h792.294c63.943 0 115.853 51.91 115.853 115.853v785.418c0 63.943-51.91 115.853-115.853 115.853zM980.34-0.573c0-41.253-33.461-74.714-74.714-74.714h-776.824c-41.253 0-74.714 33.461-74.714 74.714v770.636c0 41.253 33.461 74.714 74.714 74.714h776.824c41.253 0 74.714-33.461 74.714-74.714v-770.636zM657.533 135.334c0-36.899-44.577-55.348-70.704-29.336l-122.614 124.218h-96.716c-22.919 0-41.483 18.564-41.483 41.483v193.432c0 22.919 18.564 41.483 41.483 41.483h96.716l122.614 127.542c26.127 26.127 70.704 7.563 70.704-29.336v-469.486z" />
<glyph unicode="&#xe945;" glyph-name="hover-state" d="M618.732-102.577l379.649 230.192c16.748 10.164 26.565 28.644 25.526 48.279-0.693 13.283-3.35 31.070-9.818 54.401-20.097 72.881-60.753 235.39-119.312 333.103-43.197 71.957-91.592 150.843-114.114 187.341-15.362 24.833-38.693 44.006-66.413 53.13-32.571 10.857-76.692 10.857-122.892-32.456 0 0-97.944 50.127-160.776-26.681 0 0-113.999 36.152-148.071-31.070l-43.197 65.373c-13.514 20.444-29.106 39.501-46.431 56.942-8.778 8.894-15.015 16.055-24.833 25.179-19.982 18.827-42.389 20.906-72.303 11.319-17.441-5.66-33.264-16.979-47.471-28.529-36.96-30.146-46.316-82.929-22.407-124.163l230.192-396.397-109.032 33.957c-12.128 3.812-24.833 5.429-37.538 4.851-31.185-1.617-83.391-13.514-104.528-73.112 0 0-29.222-88.704 54.285-134.558 0 0 393.972-185.955 504.505-256.642 16.979-10.395 38.115-10.626 54.978-0.462z" />
<glyph unicode="&#xe946;" glyph-name="regular-state" d="M911.589 487.754l-758.524 403.705c-27.867 14.894-60.538-9.249-55.373-41.079l141.135-861.943c4.564-27.266 39.758-33.872 53.331-10.21l117.592 204.195c13.573 23.783 46.845 25.344 62.46 2.763l185.457-264.493c17.777-25.344 43.602-41.319 71.348-46.725l0.601-0.601 0.601 0.48c29.788-5.405 61.979 1.081 88.404 21.14v0c49.968 38.076 60.778 109.785 24.383 161.434l-185.817 264.252c-16.215 22.942-4.084 55.133 22.942 61.379l224.614 51.409c25.705 6.126 30.269 41.68 6.847 54.292z" />
<glyph unicode="&#xe947;" glyph-name="breadcrumb" d="M752.993 800h-240.993l240.993-402.133-240.993-429.867h240.993l258.207 429.867-258.207 402.133zM253.793 800h-240.993l240.993-402.133-240.993-429.867h240.993l258.207 429.867-258.207 402.133z" />
<glyph unicode="&#xe948;" glyph-name="author" d="M800 576c0-97.296-43.421-184.448-111.946-243.139 39.933-20.976 76.31-47.805 107.994-79.344l-87.523-93.517c-58.077 59.245-139.008 96-228.525 96-176.73 0-320-143.27-320-320 0-35.347-28.654-64-64-64s-64 28.653-64 64c0 172.323 97.293 321.92 239.945 396.861-68.523 58.691-111.945 145.843-111.945 243.139 0 176.731 143.27 320 320 320s320-143.269 320-320zM288 576c0-106.038 85.962-192 192-192s192 85.962 192 192c0 106.039-85.962 192-192 192s-192-85.961-192-192zM857.366 15.302l-95.107-95.117c-12.038-11.024-26.422-19.171-42.064-23.827l-92.787-23.21c-5.232-2.272-11.322-1.11-15.354 2.928-4.029 4.042-5.178 10.138-2.893 15.37l23.197 92.835c4.608 15.67 12.758 30.067 23.814 42.086l165.626 165.632 106.202-106.218-70.634-70.48zM961.981 128l-97.981 97.936 9.77 9.773c17.494 17.501 42.998 24.336 66.896 17.93 23.901-6.406 42.57-25.078 48.973-48.986s-0.429-49.414-17.926-66.915l-9.731-9.738z" />
<glyph unicode="&#xe949;" glyph-name="comments" d="M511.542 0.317c-174.33 0.15-326.724 117.619-371.246 286.166-44.523 168.55 29.978 345.954 181.493 432.177s342.083 59.664 464.25-64.699 145.322-315.378 56.413-465.33c-8.966-15.184-11.286-33.389-6.413-50.333l32.061-109.002-109.962 31.418c-16.966 4.896-35.197 2.576-50.397-6.41-59.325-35.382-127.126-54.038-196.198-53.987v0 0zM942.288-125.216c22.384-6.384 46.47-0.141 62.931 16.32 16.458 16.461 22.704 40.547 16.32 62.931-6.387 22.384-55.462 193.699-55.398 194.275 116.349 224.128 51.856 499.615-151.888 648.806s-485.846 127.496-664.382-51.093c-178.536-178.589-200.148-460.698-50.898-664.401 149.25-203.699 424.756-268.112 648.848-151.696 0.576-0.128 194.723-55.206 194.723-55.206l-0.256 0.064zM368 480h288c26.509 0 48 21.491 48 48s-21.491 48-48 48h-288c-26.509 0-48-21.491-48-48s21.491-48 48-48zM368 320h288c26.509 0 48 21.491 48 48s-21.491 48-48 48h-288c-26.509 0-48-21.491-48-48s21.491-48 48-48zM368 160h224c26.509 0 48 21.491 48 48s-21.491 48-48 48h-224c-26.509 0-48-21.491-48-48s21.491-48 48-48z" />
<glyph unicode="&#xe94a;" glyph-name="align-bottom-columns" d="M987.429-54.857c20.199 0 36.571-16.373 36.571-36.571s-16.373-36.571-36.571-36.571h-950.857c-20.198 0-36.571 16.373-36.571 36.571s16.374 36.571 36.571 36.571h950.857zM438.857 18.286c20.199 0 36.571 16.373 36.571 36.571v512c0 20.199-16.373 36.571-36.571 36.571h-109.714c-20.199 0-36.571-16.373-36.571-36.571v-512c0-20.199 16.373-36.571 36.571-36.571h109.714zM548.571 420.571c0 20.199 16.373 36.571 36.571 36.571h109.714c20.199 0 36.571-16.373 36.571-36.571v-365.714c0-20.199-16.373-36.571-36.571-36.571h-109.714c-20.199 0-36.571 16.373-36.571 36.571v365.714z" />
<glyph unicode="&#xe94b;" glyph-name="featured-images" d="M896-128h-768c-70.692 0-128 57.309-128 128v384c0 70.691 57.308 128 128 128h768c70.691 0 128-57.309 128-128v-384c0-70.691-57.309-128-128-128zM896 384h-768v-384h768v384zM64 384h896v192c0 70.692-57.309 128-128 128h-640c-70.692 0-128-57.308-128-128v-192zM192 576h640v-64h-640v64zM128 576h768v192c0 70.692-57.309 128-128 128h-512c-70.692 0-128-57.308-128-128v-192zM256 768h512v-64h-512v64zM601.421-0.173h-153.414l274.653 334.205c17.93 22.179 48.397 24.083 68.406 4.272l105.741-105.971v-166.378l-135.331 135.731-160.054-201.859zM601.421-0.173v0zM320 128c-53.019 0-96 42.979-96 96s42.981 96 96 96c53.021 0 96-42.979 96-96s-42.979-96-96-96v0 0z" />
<glyph unicode="&#xe94c;" glyph-name="pagination" d="M168.568 328.079c45.953-45.89 103.522-103.4 103.522-103.4 21.998-21.999 21.998-57.664 0-79.663s-57.663-21.999-79.662 0l-159.586 159.584c-43.877 43.88-43.751 115.044 0.145 158.943l159.441 159.44c21.998 21.998 57.663 21.998 79.662 0s21.998-57.664 0-79.663l-159.384-159.384 55.862-55.86zM855.14 327.98c-46.035-45.969-103.702-103.581-103.702-103.581-22.038-22.035-22.038-57.762 0-79.8 22.035-22.035 57.762-22.035 79.797 0l159.863 159.863c43.955 43.955 43.83 115.245-0.145 159.219l-159.719 159.717c-22.035 22.036-57.762 22.036-79.797 0-22.038-22.036-22.038-57.764 0-79.799l159.66-159.663-55.958-55.958zM709.193 318.284c36.295 0 65.717 29.422 65.717 65.717s-29.422 65.717-65.717 65.717c-36.295 0-65.717-29.422-65.717-65.717s29.422-65.717 65.717-65.717v0 0 0zM512.041 318.284c36.295 0 65.717 29.422 65.717 65.717s-29.422 65.717-65.717 65.717c-36.295 0-65.717-29.422-65.717-65.717s29.422-65.717 65.717-65.717v0 0 0zM314.889 318.284c36.295 0 65.717 29.422 65.717 65.717s-29.422 65.717-65.717 65.717c-36.294 0-65.717-29.422-65.717-65.717s29.423-65.717 65.717-65.717v0 0 0z" />
<glyph unicode="&#xe94d;" glyph-name="related-posts" d="M995.587 572.272l-182.464-169.28c-25.45-25.021-66.259-25.021-91.712 0-12.122 11.923-18.947 28.214-18.947 45.216 0 17.005 6.826 33.296 18.947 45.216l94.272 82.368h-687.679v-128c0-35.344-28.654-64-64-64s-64 28.656-64 64v128c0 70.694 57.308 128.002 128 128.002l688.063 0.384-94.656 82.624c-12.122 11.923-18.947 28.213-18.947 45.216s6.826 33.293 18.947 45.216c25.453 25.022 66.262 25.022 91.712 0l182.464-169.28c18.186-17.89 28.426-42.331 28.426-67.84s-10.24-49.95-28.426-67.842v0 0zM211.209 365.232c25.451 25.024 66.261 25.024 91.712 0 12.121-11.92 18.948-28.211 18.948-45.216 0-17.002-6.827-33.293-18.948-45.216l-94.656-82.624 687.745-0.384v128c0 35.347 28.653 64 64 64 35.344 0 64-28.653 64-64v-128c0-70.691-57.309-128-128-128h-687.681l94.272-82.368c12.121-11.92 18.948-28.211 18.948-45.216 0-17.002-6.827-33.293-18.948-45.216-25.451-25.021-66.261-25.021-91.712 0l-182.464 169.28c-18.184 17.891-28.425 42.333-28.425 67.84 0 25.51 10.241 49.952 28.425 67.84l182.784 169.28z" />
<glyph unicode="&#xe94e;" glyph-name="search-results" d="M960 416c-35.347 0-64 28.653-64 64v32h-128c-70.691 0-128 57.309-128 128v128c-122.816 0-511.999 0-511.999-0.384v-767.616h319.999c35.347 0 64-28.653 64-64s-28.653-64-64-64h-319.999c-34.025 0-66.651 13.546-90.668 37.648s-37.451 56.774-37.332 90.8v767.104c-0.036 70.78 57.22 128.236 128 128.448h607.999c37.306-1.122 72.902-15.903 100.032-41.536l146.432-146.432c25.578-27.165 40.349-62.739 41.536-100.032v-128c0-35.347-28.653-64-64-64zM768 741.5v-101.504h101.568l-101.568 101.504zM512 160c0 123.712 100.288 224 224 224s224-100.288 224-224c0-39.866-10.413-77.299-28.672-109.728l75.078-74.803c23.456-23.69 23.456-62.013 0-85.702-23.459-23.686-61.376-23.686-84.832 0l-75.434 75.136c-32.525-18.4-70.106-28.902-110.141-28.902-123.712 0-224 100.288-224 224zM736 256c-53.021 0-96-42.979-96-96s42.979-96 96-96c53.021 0 96 42.979 96 96s-42.979 96-96 96zM512 512h-192c-35.346 0-64 28.653-64 64s28.654 64 64 64h192c35.347 0 64-28.654 64-64s-28.653-64-64-64zM448 320h-128c-35.346 0-64 28.653-64 64s28.654 64 64 64h128c35.347 0 64-28.653 64-64s-28.653-64-64-64zM352 128h-32c-35.346 0-64 28.653-64 64s28.654 64 64 64h32c35.347 0 64-28.653 64-64s-28.653-64-64-64z" />
<glyph unicode="&#xe94f;" glyph-name="content" d="M1024 0c0-70.694-57.306-128-128-128h-768c-70.692 0-128 57.306-128 128v768c0 70.692 57.308 128 128 128h768c70.694 0 128-57.308 128-128v-768zM896 768h-768v-768h768v768zM512 128h192c35.347 0 64 28.653 64 64s-28.653 64-64 64h-192c-35.346 0-64-28.653-64-64s28.654-64 64-64zM704 320h-384c-35.346 0-64 28.653-64 64s28.654 64 64 64h384c35.347 0 64-28.654 64-64s-28.653-64-64-64zM640 576c0-35.346 28.653-64 64-64s64 28.654 64 64c0 35.346-28.653 64-64 64s-64-28.654-64-64zM256 192c0 35.347 28.654 64 64 64s64-28.653 64-64c0-35.347-28.654-64-64-64s-64 28.653-64 64zM320 512h192c35.347 0 64 28.654 64 64s-28.654 64-64 64h-192c-35.346 0-64-28.654-64-64s28.654-64 64-64z" />
<glyph unicode="&#xe950;" glyph-name="slider" d="M896-128h-768c-70.692 0-128 57.306-128 128v384c0 70.692 57.308 128 128 128h768c70.694 0 128-57.308 128-128v-384c0-70.694-57.306-128-128-128zM896 384h-768v-384h768v384zM64 384h896v192c0 70.692-57.306 128-128 128h-640c-70.692 0-128-57.308-128-128v-192zM192 576h640v-64h-640v64zM128 576h768v192c0 70.692-57.306 128-128 128h-512c-70.692 0-128-57.308-128-128v-192zM256 768h512v-64h-512v64z" />
<glyph unicode="&#xe951;" glyph-name="widget" d="M896-128h-768c-70.692 0-128 57.306-128 128v768c0 70.692 57.308 128 128 128h768c70.694 0 128-57.308 128-128v-768c0-70.694-57.306-128-128-128zM896 768h-768v-768h768v768zM752 64h-95.994c-44.184 0-80.001 35.814-80.001 80v160.006c0 44.182 35.817 80 80.001 80h95.994c44.186 0 80-35.818 80-80v-160.006c0-44.186-35.814-80-80-80zM752 448h-95.994c-44.184 0-80.001 35.817-80.001 80v96c0 44.183 35.817 80 80.001 80h95.994c44.186 0 80-35.817 80-80v-96c0-44.183-35.814-80-80-80zM432 64h-160c-44.183 0-80 35.814-80 80v480c0 44.183 35.817 80 80 80h160c44.183 0 80-35.817 80-80v-480c0-44.186-35.817-80-80-80z" />
<glyph unicode="&#xe952;" glyph-name="project-details" d="M1024 0c0-70.694-57.306-128-128-128h-768c-70.692 0-128 57.306-128 128v768c0 70.692 57.308 128 128 128h768c70.694 0 128-57.308 128-128v-768zM896 768h-768v-768h768v768zM512 128h192c35.347 0 64 28.653 64 64s-28.653 64-64 64h-192c-35.346 0-64-28.653-64-64s28.654-64 64-64zM704 320h-192c-35.346 0-64 28.653-64 64s28.654 64 64 64h192c35.347 0 64-28.653 64-64s-28.653-64-64-64zM256 384c0-35.347 28.654-64 64-64s64 28.653 64 64c0 35.346-28.654 64-64 64s-64-28.654-64-64zM256 192c0 35.347 28.654 64 64 64s64-28.653 64-64c0-35.347-28.654-64-64-64s-64 28.653-64 64zM320 512h384c35.347 0 64 28.654 64 64s-28.653 64-64 64h-384c-35.346 0-64-28.654-64-64s28.654-64 64-64z" />
<glyph unicode="&#xe953;" glyph-name="horizontal-flex-end" d="M950.857 859.429c0 20.199 16.373 36.571 36.571 36.571s36.571-16.373 36.571-36.571v-950.857c0-20.198-16.373-36.571-36.571-36.571s-36.571 16.374-36.571 36.571v950.857zM585.143 91.429c20.199 0 36.571 16.374 36.571 36.571v512c0 20.199-16.373 36.571-36.571 36.571h-109.714c-20.199 0-36.571-16.373-36.571-36.571v-512c0-20.198 16.373-36.571 36.571-36.571h109.714zM694.857 640c0 20.199 16.373 36.571 36.571 36.571h109.714c20.199 0 36.571-16.373 36.571-36.571v-512c0-20.198-16.373-36.571-36.571-36.571h-109.714c-20.199 0-36.571 16.374-36.571 36.571v512z" />
<glyph unicode="&#xe954;" glyph-name="horizontal-flex-start" d="M73.143-91.429c0-20.199-16.373-36.571-36.571-36.571s-36.571 16.373-36.571 36.571v950.857c0 20.198 16.373 36.571 36.571 36.571s36.571-16.374 36.571-36.571v-950.857zM438.857 676.571c-20.199 0-36.571-16.374-36.571-36.571v-512c0-20.199 16.373-36.571 36.571-36.571h109.714c20.199 0 36.571 16.373 36.571 36.571v512c0 20.198-16.373 36.571-36.571 36.571h-109.714zM329.143 128c0-20.199-16.373-36.571-36.571-36.571h-109.714c-20.199 0-36.571 16.373-36.571 36.571v512c0 20.198 16.373 36.571 36.571 36.571h109.714c20.199 0 36.571-16.374 36.571-36.571v-512z" />
<glyph unicode="&#xe955;" glyph-name="align-bottom-vert" d="M987.429-54.857c20.199 0 36.571-16.373 36.571-36.571s-16.373-36.571-36.571-36.571h-950.857c-20.198 0-36.571 16.373-36.571 36.571s16.374 36.571 36.571 36.571h950.857zM219.429 310.857c0-20.199 16.374-36.571 36.571-36.571h512c20.199 0 36.571 16.373 36.571 36.571v109.714c0 20.199-16.373 36.571-36.571 36.571h-512c-20.198 0-36.571-16.373-36.571-36.571v-109.714zM768 201.143c20.199 0 36.571-16.373 36.571-36.571v-109.714c0-20.199-16.373-36.571-36.571-36.571h-512c-20.198 0-36.571 16.373-36.571 36.571v109.714c0 20.199 16.374 36.571 36.571 36.571h512z" />
<glyph unicode="&#xe956;" glyph-name="align-center-columns" d="M1024 384c0 20.199-16.373 36.571-36.571 36.571h-256v146.286c0 20.199-16.373 36.571-36.571 36.571h-109.714c-20.199 0-36.571-16.373-36.571-36.571v-365.714c0-20.199 16.373-36.571 36.571-36.571h109.714c20.199 0 36.571 16.373 36.571 36.571v146.286h256c20.199 0 36.571 16.373 36.571 36.571zM292.571 128v219.429h-256c-20.198 0-36.571 16.373-36.571 36.571s16.374 36.571 36.571 36.571h256v219.429c0 20.198 16.373 36.571 36.571 36.571h109.714c20.199 0 36.571-16.374 36.571-36.571v-512c0-20.199-16.373-36.571-36.571-36.571h-109.714c-20.199 0-36.571 16.373-36.571 36.571z" />
<glyph unicode="&#xe957;" glyph-name="align-center-horz" d="M512-128c20.199 0 36.571 16.373 36.571 36.571v256h146.286c20.199 0 36.571 16.373 36.571 36.571v109.714c0 20.199-16.373 36.571-36.571 36.571h-365.714c-20.199 0-36.571-16.373-36.571-36.571v-109.714c0-20.199 16.373-36.571 36.571-36.571h146.286v-256c0-20.199 16.373-36.571 36.571-36.571zM256 603.429h219.429v256c0 20.198 16.373 36.571 36.571 36.571s36.571-16.374 36.571-36.571v-256h219.429c20.199 0 36.571-16.373 36.571-36.571v-109.714c0-20.199-16.373-36.571-36.571-36.571h-512c-20.198 0-36.571 16.373-36.571 36.571v109.714c0 20.199 16.374 36.571 36.571 36.571z" />
</font>
</defs>
</svg>
